<?xml version="1.0" standalone="no"?>
<!DOCTYPE svg PUBLIC "-//W3C//DTD SVG 1.1//EN" "http://www.w3.org/Graphics/SVG/1.1/DTD/svg11.dtd" >
<svg xmlns="http://www.w3.org/2000/svg">
<metadata>Generated by IcoMoon</metadata>
<defs>
<font id="icomoon" horiz-adv-x="512">
<font-face units-per-em="512" ascent="480" descent="-32" />
<missing-glyph horiz-adv-x="512" />
<glyph unicode="&#x20;" d="" horiz-adv-x="256" />
<glyph unicode="&#xe600;" d="M136.84 379.127c-2.782 8.448-10.607 14.166-19.507 14.166-8.892 0-16.785-5.743-19.541-14.149l-96.793-297.558c-3.482-10.76 2.398-22.349 13.167-25.873 2.117-0.674 4.266-1.015 6.349-1.015 8.662 0 16.726 7.288 19.524 15.983l22.093 69.709h110.395l22.076-69.675c3.524-10.803 15.078-17.57 25.856-14.089 10.778 3.533 16.683 14.695 13.184 25.421l-96.802 297.079zM75.469 173.209l41.839 128.614 41.839-128.614h-83.678zM300.527 184.883l41.046 39.757c4.010 3.874 6.247 9.216 6.247 14.745s-2.245 10.871-6.247 14.745l-41.046 39.765c-8.141 7.859-21.137 7.697-29.031-0.478-7.877-8.149-7.671-23.45 0.486-31.326l4.634-6.792h-51.942c-11.35 0-20.523-5.112-20.523-16.418 0-11.35 9.173-16.418 20.523-16.418h51.942l-4.634-6.298c-8.158-7.877-8.389-21.76-0.486-29.909 4.010-4.164 9.361-6.699 14.737-6.699 5.137 0.017 10.334 1.493 14.293 5.325zM509.619 372.728c-3.541 6.758-10.565 13.918-18.134 13.918h-164.173c-11.349 0-20.522-13.312-20.522-24.627 0-11.35 9.173-24.627 20.522-24.627h125.209l-165.359-241.032c-4.344-6.315-4.805-17.416-1.246-24.149 3.541-6.767 10.565-13.935 18.134-13.935h164.164c11.341 0 20.522 13.329 20.522 24.627 0 11.341-9.182 24.627-20.522 24.627h-125.209l165.376 241.050c4.327 6.314 4.813 17.416 1.238 24.149z" />
<glyph unicode="&#xe601;" d="M191.659 428.8c-3.004 9.933-12.817 15.565-22.801 14.131-10.001 1.451-19.798-4.198-22.818-14.131l-119.552-395.111c-3.311-10.974 2.867-22.545 13.841-25.89 2.014-0.58 4.027-0.904 6.041-0.904 8.892 0 17.135 1.639 19.831 10.615l23.569 73.677h158.139l23.552-73.677c2.731-8.977 10.94-12.68 19.849-12.68 2.014 0 4.010 1.297 6.007 1.894 10.991 3.294 17.186 15.428 13.858 26.402l-119.518 395.673zM102.314 141.039l66.509 219.836 66.492-219.836h-133zM486.4 195.26c-5.871 18.363-24.013 37.99-41.13 44.63-47.702 18.517-121.651-21.947-129.809-26.641-9.967-5.683-13.807-18.313-8.141-28.279 5.683-9.933 18.142-13.414 28.091-7.765 20.514 11.707 69.41 32.973 92.433 23.962 3.345-1.314 8.721-3.481 8.721-9.608v-24.406c-33.212-0.051-80.572-4.762-108.971-30.89-14.643-13.466-21.811-31.283-21.606-51.524 0.358-27.050 14.695-48.111 40.005-59.392 13.944-6.229 30.225-8.909 46.661-8.909 17.203 0 34.731 3.003 50.296 8.089 3.789-4.779 12.766-8.022 19.32-8.022 11.469 0 24.115 9.318 24.115 20.753v158.003c0.017-0.768 0.017 0 0.017 0zM436.616 67.106c-16.623-9.284-54.101-12.817-74.342-3.806-10.377 4.591-14.626 11.401-14.762 21.982-0.103 8.601 1.877 14.865 7.919 20.394 17.152 15.769 47.992 19.61 81.203 19.781v-58.351z" />
<glyph unicode="&#xe602;" d="M169.881 394.666c0 44.203 37.495 68.267 74.667 68.267h21.334c37.171 0 74.666-24.064 74.666-68.267v-68.267h17.067v68.267c0 50.245-35.209 85.334-91.733 85.334h-21.334c-56.525 0-91.733-35.089-91.733-85.334v-68.267h17.066v68.267zM425.882 70.4v46.933c0 5.905-2.628 10.666-8.534 10.666s-8.534-4.762-8.534-10.666v-46.933h-46.933c-5.905 0-10.666-2.628-10.666-8.534s4.762-8.534 10.666-8.534h46.933v-42.666c0-5.905 2.628-10.666 8.534-10.666s8.534 4.762 8.534 10.666v42.666h42.666c5.905 0 10.666 2.628 10.666 8.534s-4.762 8.534-10.666 8.534h-42.666zM512.273-17.971l-19.798 61.303-1.416 3.175c-4.881-6.298-12.902-10.24-22.511-10.24h-25.6v-25.6c0-16.060-10.769-27.733-25.6-27.733s-25.6 11.656-25.6 27.733v25.6h-29.866c-16.043 0-27.733 10.769-27.733 25.6s11.69 25.6 27.733 25.6h29.866v29.866c0 16.043 10.769 27.733 25.6 27.733s25.6-11.69 25.6-27.733v-29.866h25.6c1.57 0 3.055-0.205 4.557-0.375l-0.955 2.082-67.909 209.664c-1.467 4.369-4.522 10.496-9.113 10.496h-37.512v-64c0-5.905-2.577-10.667-8.534-10.667s-8.534 4.762-8.534 10.666v64h-170.667v-64c0-5.905-2.594-10.666-8.534-10.666s-8.534 4.762-8.534 10.666v64h-35.909c-4.608 0-8.704-2.935-10.171-7.305l-107.008-320c-1.075-3.226-0.529-6.827 1.468-9.608 2.031-2.765 5.274-4.421 8.704-4.421h492.202c3.43 0 6.673 1.673 8.704 4.421 2.014 2.782 2.543 6.383 1.468 9.608z" />
<glyph unicode="&#xe603;" d="M490.666 222.925h-74.666c0 0-1.041 3.328-3.14 5.393l-85.334 84.275c-4.164 4.165-10.923 3.635-15.070-0.529-4.164-4.165-4.164-9.029 0-13.192l77.79-75.93h-268.493l77.807 75.673c4.165 4.164 4.165 9.831 0 13.995s-10.923 3.635-15.087-0.529l-85.334-83.456c-2.099-2.082-3.141-5.683-3.141-5.683h-74.666c-5.905 0-10.666-11.161-10.666-17.067s4.761-17.067 10.666-17.067h32.205c0 0-0.12 2.799 0.034 2.099l42.666-200.534c1.041-4.966 5.393-6.383 10.427-6.383h298.666c5.034 0 9.404 3.567 10.428 8.499l42.666 198.4c0.154 0.7 0.034-2.099 0.034-2.099h32.205c5.905 0 10.666 11.161 10.666 17.067 0 5.922-4.762 17.067-10.666 17.067zM362.666 393.591h46.933v-46.933c0-5.905 2.628-10.667 8.534-10.667s8.534 4.762 8.534 10.666v46.934h42.666c5.905 0 10.666 2.628 10.666 8.534s-4.762 8.534-10.666 8.534h-42.666v42.666c0 5.905-2.628 10.666-8.534 10.666s-8.534-4.779-8.534-10.666v-42.666h-46.933c-5.905 0-10.666-2.629-10.666-8.534s4.762-8.534 10.666-8.534z" />
<glyph unicode="&#xe604;" d="M452.25 413.85h-38.4v36.266c0 5.888-2.628 10.667-8.534 10.667s-8.534-4.762-8.534-10.667v-36.266h-34.134c-5.905 0-10.666-2.629-10.666-8.534s4.762-8.534 10.666-8.534h34.134v-36.267c0-5.905 2.628-10.666 8.534-10.666s8.534 4.762 8.534 10.666v36.267h38.4c5.905 0 10.666 2.628 10.666 8.534s-4.762 8.534-10.666 8.534zM489.147 259.277c-1.673 2.816-4.505 4.694-7.697 5.137l-363.042 49.562-11.281 26.931c-1.587 4.096-5.546 4.659-9.95 4.659h-65.177c-5.905 0-10.666-0.495-10.666-6.4v-32c0-5.905 2.628-10.666 8.534-10.666s8.534 4.762 8.534 10.666v21.334h51.525l10.803-27.835c0.103-0.171 0.136-0.359 0.222-0.512l77.585-201.642c1.605-4.096 5.53-8.909 9.967-8.909h234.666c4.403 0 8.363 4.864 9.95 8.977l56.883 150.409c1.11 3.055 0.819 7.51-0.853 10.291zM244.155 82.005c-26.146 0-47.394-21.265-47.394-47.377 0-26.146 21.248-47.411 47.394-47.411 26.129 0 47.36 21.265 47.36 47.411 0 26.112-21.231 47.377-47.36 47.377zM367.394 82.005c-26.146 0-47.411-21.265-47.411-47.377 0-26.146 21.265-47.411 47.411-47.411 26.112 0 47.377 21.265 47.377 47.411 0.051 26.112-21.231 47.377-47.377 47.377z" />
<glyph unicode="&#xe605;" d="M158.942 480l-102.4-136.534h102.4zM363.742 19.2h-25.6c-16.060 0-27.733 10.769-27.733 25.6s11.673 25.6 27.733 25.6h25.6v25.6c0 16.060 10.769 27.733 25.6 27.733s25.6-11.673 25.6-27.733v-25.6h29.866c1.467 0 2.867-0.205 4.267-0.358v399.291c0 5.888-9.046 10.666-14.933 10.666h-258.134v-138.666c0-5.905-9.046-14.934-14.934-14.934h-104.534v-347.733c0-5.905 9.028-10.667 14.933-10.667h301.142c-5.462 4.966-8.875 12.442-8.875 21.334v29.866zM444.808 53.334h-46.933v42.666c0 5.905-2.628 10.666-8.534 10.666s-8.534-4.762-8.534-10.666v-42.666h-42.666c-5.905 0-10.666-2.628-10.666-8.534s4.762-8.534 10.666-8.534h42.666v-46.933c0-5.905 2.628-10.666 8.534-10.666s8.534 4.762 8.534 10.666v46.933h46.933c5.905 0 10.666 2.628 10.666 8.534s-4.779 8.534-10.666 8.534z" />
<glyph unicode="&#xe606;" d="M21.47 73.591c-3.294 0-6.639 0.973-9.575 2.935-7.8 5.308-9.831 15.906-4.54 23.74l44.151 65.075-44.151 65.093c-5.308 7.799-3.26 18.415 4.54 23.706 7.817 5.291 18.415 3.243 23.706-4.54l50.671-74.684c3.925-5.769 3.925-13.363 0-19.166l-50.671-74.632c-3.311-4.881-8.67-7.526-14.131-7.526zM490.53 340.258h-358.4c-9.421 0-17.067 7.646-17.067 17.066s7.646 17.067 17.067 17.067h358.4c9.438 0 17.067-7.646 17.067-17.067s-7.629-17.066-17.067-17.066zM268.663 271.991h-136.534c-9.421 0-17.067 7.646-17.067 17.067s7.646 17.067 17.067 17.067h136.534c9.438 0 17.067-7.646 17.067-17.067s-7.629-17.067-17.067-17.067zM405.197 203.725h-273.067c-9.421 0-17.067 7.646-17.067 17.067s7.646 17.066 17.067 17.066h273.067c9.438 0 17.067-7.646 17.067-17.066s-7.629-17.067-17.067-17.067zM149.214 152.525h-17.066c-9.421 0-17.067 7.646-17.067 17.067s7.646 17.067 17.067 17.067h17.066c9.421 0 17.066-7.646 17.066-17.067s-7.663-17.067-17.066-17.067zM234.547 152.525h-17.066c-9.421 0-17.066 7.646-17.066 17.067s7.646 17.067 17.066 17.067h17.066c9.421 0 17.066-7.646 17.066-17.067s-7.663-17.067-17.066-17.067zM319.863 152.525h-17.067c-9.404 0-17.067 7.646-17.067 17.067s7.663 17.067 17.067 17.067h17.067c9.438 0 17.067-7.646 17.067-17.067s-7.629-17.067-17.067-17.067zM405.197 152.525h-17.067c-9.404 0-17.067 7.646-17.067 17.067s7.663 17.067 17.067 17.067h17.067c9.438 0 17.067-7.646 17.067-17.067s-7.629-17.067-17.067-17.067zM490.53 152.525h-17.067c-9.404 0-17.067 7.646-17.067 17.067s7.663 17.067 17.067 17.067h17.067c9.438 0 17.067-7.646 17.067-17.067s-7.629-17.067-17.067-17.067zM149.214 101.325h-17.066c-9.421 0-17.067 7.646-17.067 17.067s7.646 17.067 17.067 17.067h17.066c9.421 0 17.066-7.646 17.066-17.067s-7.663-17.067-17.066-17.067zM234.547 101.325h-17.066c-9.421 0-17.066 7.646-17.066 17.067s7.646 17.067 17.066 17.067h17.066c9.421 0 17.066-7.646 17.066-17.067s-7.663-17.067-17.066-17.067zM319.863 101.325h-17.067c-9.404 0-17.067 7.646-17.067 17.067s7.663 17.067 17.067 17.067h17.067c9.438 0 17.067-7.646 17.067-17.067s-7.629-17.067-17.067-17.067zM405.197 101.325h-17.067c-9.404 0-17.067 7.646-17.067 17.067s7.663 17.067 17.067 17.067h17.067c9.438 0 17.067-7.646 17.067-17.067s-7.629-17.067-17.067-17.067zM490.53 101.325h-17.067c-9.404 0-17.067 7.646-17.067 17.067s7.663 17.067 17.067 17.067h17.067c9.438 0 17.067-7.646 17.067-17.067s-7.629-17.067-17.067-17.067z" />
<glyph unicode="&#xe607;" d="M353.997 62.925h-221.867c-9.421 0-17.067 7.629-17.067 17.067 0 9.404 7.646 17.067 17.067 17.067h221.867c9.438 0 17.067-7.663 17.067-17.067 0-9.421-7.629-17.067-17.067-17.067zM405.197 199.458h-273.067c-9.421 0-17.067 7.629-17.067 17.067 0 9.421 7.646 17.066 17.067 17.066h273.067c9.438 0 17.067-7.646 17.067-17.066s-7.629-17.067-17.067-17.067zM251.614 131.192h-119.466c-9.421 0-17.067 7.629-17.067 17.067 0 9.404 7.646 17.067 17.067 17.067h119.466c9.421 0 17.066-7.663 17.066-17.067-0.017-9.421-7.663-17.067-17.066-17.067zM21.47 201.591c-3.294 0-6.639 0.955-9.575 2.935-7.8 5.308-9.831 15.906-4.54 23.722l44.151 65.075-44.151 65.093c-5.308 7.799-3.26 18.415 4.54 23.705 7.817 5.291 18.415 3.26 23.706-4.54l50.671-74.683c3.925-5.786 3.925-13.38 0-19.166l-50.671-74.649c-3.311-4.864-8.67-7.493-14.131-7.493zM149.214 301.858h-17.066c-9.421 0-17.067 7.646-17.067 17.066s7.646 17.067 17.067 17.067h17.066c9.421 0 17.066-7.646 17.066-17.067s-7.663-17.066-17.066-17.066zM234.547 301.858h-17.066c-9.421 0-17.066 7.646-17.066 17.066s7.646 17.067 17.066 17.067h17.066c9.421 0 17.066-7.646 17.066-17.067s-7.663-17.066-17.066-17.066zM319.863 301.858h-17.067c-9.404 0-17.067 7.646-17.067 17.066s7.663 17.067 17.067 17.067h17.067c9.438 0 17.067-7.646 17.067-17.067s-7.629-17.066-17.067-17.066zM405.197 301.858h-17.067c-9.404 0-17.067 7.646-17.067 17.066s7.663 17.067 17.067 17.067h17.067c9.438 0 17.067-7.646 17.067-17.067s-7.629-17.066-17.067-17.066zM490.53 301.858h-17.067c-9.404 0-17.067 7.646-17.067 17.066s7.663 17.067 17.067 17.067h17.067c9.438 0 17.067-7.646 17.067-17.067s-7.629-17.066-17.067-17.066zM149.214 250.658h-17.066c-9.421 0-17.067 7.646-17.067 17.066s7.646 17.066 17.067 17.066h17.066c9.421 0 17.066-7.646 17.066-17.066s-7.663-17.066-17.066-17.066zM234.547 250.658h-17.066c-9.421 0-17.066 7.646-17.066 17.066s7.646 17.066 17.066 17.066h17.066c9.421 0 17.066-7.646 17.066-17.066s-7.663-17.066-17.066-17.066zM319.863 250.658h-17.067c-9.404 0-17.067 7.646-17.067 17.066s7.663 17.066 17.067 17.066h17.067c9.438 0 17.067-7.646 17.067-17.066s-7.629-17.066-17.067-17.066zM405.197 250.658h-17.067c-9.404 0-17.067 7.646-17.067 17.066s7.663 17.066 17.067 17.066h17.067c9.438 0 17.067-7.646 17.067-17.066s-7.629-17.066-17.067-17.066zM490.53 250.658h-17.067c-9.404 0-17.067 7.646-17.067 17.066s7.663 17.066 17.067 17.066h17.067c9.438 0 17.067-7.646 17.067-17.066s-7.629-17.066-17.067-17.066z" />
<glyph unicode="&#xe608;" d="M145.169 244.138c4.83-60.775 55.126-129.468 118.408-129.468 61.952 0 108.697 66.816 112.726 129.861 10.872 4.215 17.374 15.291 17.374 30.139v42.666c0 9.762 0 26.897-17.067 31.062v32.938c0 58.471-32.768 90.675-87.825 90.675-34.492 0-69.206-12.595-77.773-16.026-40.158-1.144-73.352-34.202-73.352-74.632v-36.165c-17.067-4.864-17.067-14.506-17.067-27.835v-42.666c0.017-14.779 10.377-26.555 24.576-30.549zM468.327 61.337h-40.534v42.666c0 5.871-2.611 10.666-8.534 10.666-5.905 0-8.534-4.796-8.534-10.666v-42.666h-39.065c-5.905 0-10.666-2.663-10.666-8.534 0-5.905 4.762-8.534 10.666-8.534h39.065v-46.933c0-5.905 2.628-10.666 8.534-10.666 5.922 0 8.534 4.762 8.534 10.666v46.933h40.534c5.922 0 10.666 2.628 10.666 8.534 0 5.854-4.745 8.534-10.666 8.534zM393.659 27.204h-21.999c-16.043 0-27.733 10.769-27.733 25.6s11.69 25.6 27.733 25.6h21.999v24.559c0 0.358-8.243-7.493-12.202-7.493h-26.624l-15.155 25.037c-21.504-19.166-47.872-29.303-77.38-29.303-28.058 0-53.709 7.594-75.367 24.593l-12.68-20.327h-26.624c-64.427 0-111.138-40.175-114.671-100.318 0-0.017 0 0.034 0 0.017v-8.499c0-5.905-0.17-10.666 5.734-10.666h363.793c-5.427 4.966-8.875 12.442-8.875 21.334l0.051 29.866zM32.973-4.83v2.168c0 0.683-0.136-2.577 0-2.168z" />
<glyph unicode="&#xe609;" d="M615.322 68.199h-37.735v35.925c0 5.871-2.629 10.666-8.534 10.666-5.871 0-8.534-4.796-8.534-10.666v-35.925h-34.134c-5.905 0-10.667-2.663-10.667-8.534 0-5.905 4.761-8.534 10.667-8.534h34.134v-35.925c0-5.905 2.663-10.666 8.534-10.666 5.905 0 8.534 4.762 8.534 10.666v35.925h37.735c5.871 0 10.667 2.628 10.667 8.534 0 5.871-4.795 8.534-10.667 8.534zM393.848 82.517c-64.358 0-100.096 67.823-103.168 134.776-16.026 3.55-37.359 14.2-37.359 31.608v44.476c0 13.688 17.066 23.637 17.066 28.638v38.093c0 39.851 28.296 65.007 71.237 66.253 33.997 23.296 66.491 35.141 94.805 35.141 25.856 0 48.333-10.308 61.969-28.997 14.456-19.763 10.974-47.291 10.974-74.001v-33.161c17.066-4.301 17.066-21.897 17.066-31.949v-44.476c0-16.537-17.75-27.87-33.792-31.574-2.952-68.471-35.567-134.827-98.799-134.827zM177.817 250.607c-2.219 0-4.471 0.717-6.332 2.082l-57.583 42.599-57.549-41.404c-3.755-2.696-8.858-2.662-12.561 0.102-3.721 2.731-5.257 7.611-3.772 12.015l21.794 64.086-57.122 38.605c-3.874 2.628-5.598 9.608-4.215 14.097 1.365 4.472 5.513 9.66 10.206 9.66h71.168l21.982 65.536c2.833 8.824 17.408 9.899 20.258 1.075l21.982-66.577h71.168c4.677 0 8.84-5.206 10.223-9.659 1.365-4.506-0.375-10.428-4.25-13.056l-57.139-38.963 21.828-65.861c1.485-4.438-0.085-9.421-3.857-12.135-1.826-1.399-4.045-2.202-6.23-2.202zM594.654 34.065v-18.858c0-16.026-10.769-27.733-25.6-27.733s-25.6 11.707-25.6 27.733v18.858h-17.067c-16.060 0-27.733 10.769-27.733 25.6s11.673 25.6 27.733 25.6h17.067v17.067h-30.276l-16.827 27.392c-19.37-41.608-53.163-70.725-102.469-70.725-49.698 0-85.657 29.099-105.933 72.653l-19.353-29.389h-26.624c-66.97 0-123.734-36.625-125.201-98.134-0.034-0.29 0 0.325 0 0v-10.666c0-5.922 12.63-10.666 18.535-10.666h476.416v51.2h-17.067v0.068z" horiz-adv-x="623" />
<glyph unicode="&#xe60a;" d="M494.933 411.733h-477.866c-17.067 0-17.067-11.161-17.067-17.066v-68.267h512v68.267c0 5.905 0 17.067-17.067 17.067zM74.666 356.267c-5.905 0-10.666 4.762-10.666 10.666s4.761 10.666 10.666 10.666 10.666-4.762 10.666-10.666-4.761-10.666-10.666-10.666zM117.334 356.267c-5.905 0-10.666 4.762-10.666 10.666s4.761 10.666 10.666 10.666 10.666-4.762 10.666-10.666-4.761-10.666-10.666-10.666zM160 356.267c-5.905 0-10.666 4.762-10.666 10.666s4.762 10.666 10.666 10.666 10.666-4.762 10.666-10.666-4.762-10.666-10.666-10.666zM324.267 155.733h51.2v-51.2c0-4.693 3.84-8.534 8.534-8.534s8.534 3.84 8.534 8.534v51.2h51.2c4.694 0 8.534 3.84 8.534 8.534s-3.84 8.534-8.534 8.534h-51.2v51.2c0 4.71-3.84 8.534-8.534 8.534s-8.534-3.823-8.534-8.534v-51.2h-51.2c-4.694 0-8.534-3.84-8.534-8.534s3.84-8.534 8.534-8.534zM0 53.334c0-5.905 0-17.067 17.067-17.067h477.866c17.067 0 17.067 11.161 17.067 17.067v256h-512v-256zM324.267 189.866h34.133v34.134c0 14.114 11.486 25.6 25.6 25.6s25.6-11.486 25.6-25.6v-34.134h34.134c14.114 0 25.6-11.486 25.6-25.6s-11.486-25.6-25.6-25.6h-34.134v-34.134c0-14.114-11.486-25.6-25.6-25.6s-25.6 11.486-25.6 25.6v34.134h-34.134c-14.114 0-25.6 11.486-25.6 25.6s11.486 25.6 25.6 25.6z" />
<glyph unicode="&#xe60b;" d="M256 469.334c-135.287 0-245.333-110.063-245.333-245.334 0-135.304 110.046-245.333 245.333-245.333s245.333 110.029 245.333 245.333c0 135.27-110.046 245.333-245.333 245.333zM352 213.504h-85.418v-85.504c0-5.905-2.646-10.666-8.534-10.666s-8.534 4.762-8.534 10.666v85.504h-89.514c-5.888 0-10.666 2.628-10.666 8.534 0 5.871 4.779 8.534 10.666 8.534h89.514v89.43c0 5.871 2.645 10.666 8.534 10.666s8.534-4.796 8.534-10.666v-89.43h85.418c5.888 0 10.666-2.662 10.666-8.534 0-5.905-4.762-8.534-10.666-8.534z" />
<glyph unicode="&#xe60c;" d="M277.334 194.134c-49.391 0-102.024-21.334-106.376-106.666h212.753c-4.335 85.334-56.969 106.666-106.376 106.666zM68.266 480h-36.267c-5.905 0-14.934-4.796-14.934-10.666v-490.666c0-5.939 9.029-10.666 14.934-10.666h36.267v512zM426.666 480h-341.334v-512h362.666c23.518 0 46.933 19.149 46.933 42.666v405.334c0 35.294-32.973 64-68.267 64zM277.334 373.334c35.294 0 64-28.706 64-64s-28.706-64-64-64-64 28.706-64 64 28.706 64 64 64zM395.094 70.4c-0.154 0-0.29 0-0.426 0h-234.667c-5.905 0-10.667 6.895-10.667 12.8 0 84.241 50.227 139.742 128 139.742 76.817 0 126.771-52.616 127.983-135.048 0.29-1.007 0.443-3.909 0.443-4.966 0-5.888-4.779-12.527-10.666-12.527zM277.334 266.667c23.518 0 42.666 19.149 42.666 42.666s-19.149 42.666-42.666 42.666c-23.535 0-42.666-19.149-42.666-42.666s19.131-42.666 42.666-42.666z" />
<glyph unicode="&#xe60d;" d="M501.334 411.733h-40.534v25.6c0 23.518-10.615 42.666-34.133 42.666h-373.334c-5.905 0-19.2-4.796-19.2-10.666v-57.6h-17.067c-9.421 0-17.067-7.629-17.067-17.066s7.646-17.067 17.067-17.067h17.067v-34.134h-17.067c-9.421 0-17.067-7.629-17.067-17.067s7.646-17.066 17.067-17.066h17.067v-34.133h-17.067c-9.421 0-17.067-7.629-17.067-17.067s7.646-17.066 17.067-17.066h17.067v-34.133h-17.067c-9.421 0-17.067-7.629-17.067-17.067s7.646-17.067 17.067-17.067h17.067v-34.133h-17.067c-9.421 0-17.067-7.629-17.067-17.067s7.646-17.067 17.067-17.067h17.067v-34.134h-17.067c-9.421 0-17.067-7.629-17.067-17.067s7.646-17.067 17.067-17.067h17.067v-57.6c0-5.939 13.295-10.666 19.2-10.666h373.334c23.518 0 42.666 17.067 42.666 34.133h32c5.905 0 10.666 13.261 10.666 19.2v384c0 5.871-4.762 6.4-10.666 6.4zM119.466 53.334c0-5.905-2.629-10.666-8.534-10.666s-8.534 4.762-8.534 10.666v362.666c0 5.871 2.629 10.666 8.534 10.666s8.534-4.796 8.534-10.666v-362.666zM494.933 53.334h-34.134v34.133h34.134v-34.134zM494.933 121.6h-34.134v34.134h34.134v-34.134zM494.933 189.866h-34.134v34.134h34.134v-34.134zM494.933 258.134h-34.134v34.133h34.134v-34.133zM494.933 326.4h-34.134v34.134h34.134v-34.134z" />
<glyph unicode="&#xe60e;" d="M135.493 244.138c4.83-60.775 55.125-129.451 118.409-129.451 61.952 0 108.68 66.833 112.726 129.861 10.872 4.215 17.374 15.291 17.374 30.139v42.666c0 9.762 0 26.897-17.067 31.061v32.939c0 58.471-32.768 90.675-87.808 90.675-34.492 0-69.222-12.595-77.79-16.026-40.158-1.144-73.353-34.202-73.353-74.632v-36.164c-17.067-4.864-17.067-14.507-17.067-27.836v-42.666c0.017-14.797 10.376-26.573 24.576-30.566zM375.365 103.765l-115.269-72.823c-1.775-1.075-3.26-1.622-5.222-1.622-2.031 0-3.823 0.563-5.581 1.724l-109.517 72.892c-67.704-0.273-114.176-45.005-114.176-106.632v-10.666c0-5.905-0.171-10.666 5.735-10.666h448c5.905 0 7.065 4.762 7.065 10.666v10.666c0 61.952-44.493 105.284-111.036 106.462zM176.333 121.942l-8.328-12.442 87.433-56.832 89.361 55.978-12.442 18.091c-21.863-20.361-49.169-33.399-79.719-33.399-28.433 0-54.477 11.127-76.305 28.603z" />
<glyph unicode="&#xe60f;" d="M311.842 466.125c-23.518 0-42.666-19.132-42.666-42.666 0-23.518 19.149-42.666 42.666-42.666 23.535 0 42.666 19.149 42.666 42.666 0 23.535-19.132 42.666-42.666 42.666zM162.509 50.125h-106.666c-11.776 0-26.368-9.575-26.368-21.334v-21.334c0-11.793 12.066-25.6 23.842-25.6 11.793 0 23.842 17.067 23.842 17.067h64c0 0 9.165-17.067 20.958-17.067s20.958 13.807 20.958 25.6v21.334c0.017 11.776-8.773 21.334-20.565 21.334zM164.165 361.233l84.992-42.189c3.072-1.536 6.298-2.236 9.489-2.236 7.851 0 15.377 4.335 19.115 11.827 5.24 10.565 0.938 23.365-9.625 28.587l-84.992 42.206c-10.565 5.291-23.347 0.956-28.621-9.608-5.206-10.53-0.922-23.347 9.643-28.587zM311.091 327.458c-11.776 0-25.6-9.574-25.6-21.333v-78.678l-183.194-39.117c-11.52-2.44-17.63-13.738-15.24-25.241 2.441-11.537 11.912-18.875 23.382-16.469l175.053 37.257v-176.367c0-11.793 13.824-21.334 25.6-21.334s25.6 9.541 25.6 21.334v298.632c0 11.742-13.824 21.316-25.6 21.316zM461.175 340.258h-85.334c-11.776 0-21.334-5.308-21.334-17.067 0-11.793 9.558-17.067 21.334-17.067h85.334c11.793 0 21.334 5.274 21.334 17.067 0 11.759-9.541 17.067-21.334 17.067z" />
<glyph unicode="&#xe610;" d="M225.707 399.514c0-22.699-18.398-41.096-41.096-41.096s-41.096 18.398-41.096 41.096c0 22.698 18.398 41.096 41.096 41.096s41.096-18.398 41.096-41.096zM386.44-2.543l-100.505 175.565c-0.017 59.529-2.099 107.912-18.108 143.274 59.375 17.527 75.025 50.005 78.728 69.718 6.434 34.048-13.329 70.724-49.169 91.255-9.83 5.666-22.409 2.253-28.075-7.577-5.649-9.831-2.202-22.409 7.629-28.058 20.002-11.503 32.307-31.659 29.235-48.009-3.567-18.841-26.966-33.707-64.837-41.711-1.229 1.024-2.185 2.287-3.499 3.277-9.063 6.81-21.947 4.933-28.774-4.096-3.447-4.642-4.625-10.257-3.789-15.531l-75.23-64.7c-5.342-4.608-7.987-11.673-6.912-18.671s5.666-12.936 12.168-15.769l109.363-47.309c0.051-5.342 0.137-10.428 0.137-16.128l-98.731-173.517c-5.512-9.899-1.946-22.409 7.953-27.938 3.174-1.775 6.605-2.577 9.967-2.577 7.237 0 14.233 3.67 17.988 10.445l83.559 150.17 85.094-150.733c5.563-9.865 18.108-13.875 28.007-8.295s13.363 17.050 7.8 26.914zM181.794 261.086l47.804 41.13c7.868-15.65 11.776-37.837 13.688-67.721l-61.491 26.59z" />
<glyph unicode="&#xe611;" d="M273.459 190.361l28.177-75.195c3.226-8.534 11.349-13.841 19.968-13.841 2.491 0 5.034 0.426 7.493 1.349 11.025 4.147 16.64 16.452 12.459 27.478l-32 85.334c-2.389 6.349-7.646 11.196-14.216 13.039l-96.649 27.136c-1.143 0.341-2.321 0.137-3.464 0.256-1.365 0.171-2.748 0.426-4.096 0.325-1.468-0.137-2.765-0.597-4.165-1.041-1.229-0.358-2.492-0.614-3.601-1.195-1.297-0.649-2.338-1.605-3.482-2.492-1.041-0.785-2.065-1.502-2.952-2.492-0.973-1.093-1.553-2.44-2.287-3.755-0.546-0.956-1.331-1.741-1.741-2.782l-72.653-197.786c-4.045-11.042 1.621-23.33 12.663-27.375 2.457-0.921 4.898-1.314 7.356-1.314 8.704 0 16.862 5.342 20.037 13.961l65.861 179.268 67.294-18.875zM169.506 335.923l73.575-73.096c3.925-3.687 9.165-10.018 14.575-10.018h42.666c11.793 0 21.334 13.807 21.334 25.6 0 11.759-9.541 25.6-21.334 25.6h-34.253l-79.838 74.701c-7.287 6.793-18.313 7.697-26.555 2.099l-82.91-56.269c-9.745-6.605-12.305-19.865-5.666-29.611s19.9-12.288 29.627-5.666l68.779 46.66zM268.425 357.325c23.552 0 42.666 19.149 42.666 42.666 0 23.535-19.115 42.667-42.666 42.667-23.518 0-42.666-19.132-42.666-42.667 0-23.501 19.149-42.666 42.666-42.666zM428.288 82.125h-170.667c-11.759 0-17.834-1.041-17.834-12.8v-42.666c0-11.793 5.308-21.334 17.067-21.334 11.793 0 17.067 9.541 17.067 21.334v21.334h136.534v-21.334c0-11.793 5.308-21.334 17.067-21.334 11.793 0 17.067 9.541 17.067 21.334v42.666c0 11.776-4.505 12.8-16.298 12.8z" />
<glyph unicode="&#xe612;" d="M267.913 88.32c3.618-4.642 2.731-11.349-1.894-14.95-11.144-8.584-25.105-13.363-39.27-13.363-35.277 0-64 28.433-64 63.334 0 35.533 27.238 63.334 62.003 63.334 14.575 0 24.234-5.103 32.529-10.666 4.864-3.243 6.195-9.899 2.918-14.797-3.243-4.881-9.916-6.178-14.797-2.935-6.844 4.625-12.168 7.065-20.65 7.065-22.801 0-40.67-18.432-40.67-42.001 0-23.142 19.149-42.001 42.666-42.001 9.335 0 18.875 3.26 26.214 8.892 4.676 3.601 11.401 2.731 14.95-1.911zM483.464 123.341c0 35.533-27.238 63.334-62.003 63.334-14.575 0-24.235-5.103-32.495-10.666-4.898-3.243-6.229-9.899-2.935-14.797 3.226-4.881 9.933-6.161 14.779-2.935 6.844 4.625 12.168 7.065 20.651 7.065 22.818 0 40.67-18.432 40.67-42.001 0-23.125-19.132-42.001-42.666-42.001-9.336 0-18.875 3.26-26.197 8.892-4.676 3.601-11.366 2.731-14.967-1.894-3.601-4.659-2.731-11.366 1.911-14.967 11.144-8.567 25.088-13.363 39.253-13.363 35.277 0 64 28.433 64 63.334zM241.613 122.334c0-5.905 4.762-17.067 10.666-17.067h128c5.922 0 10.666 11.161 10.666 17.067s-4.745 17.067-10.666 17.067h-128c-5.905 0-10.666-11.161-10.666-17.067zM483.089 197.974c52.719 0 95.471 81.425 95.471 134.605 0 52.651-42.837 95.488-95.471 95.488s-95.471-42.838-95.471-95.488c0-53.179 42.769-134.605 95.471-134.605zM420.676 203.673c-16.179 14.575-29.115 31.369-38.758 53.179-19.132-20.053-33.536-32.102-44.442-66.236h42.632c9.779 6.451 22.255 12.851 40.567 13.056zM583.151 260.966c-19.899-44.868-55.962-84.327-100.028-84.327-0.87 0-1.741 0.137-2.56 0.205 12.339-14.114 20.002-32.632 20.002-53.47 0-44.373-36.386-80.401-81.067-80.401-7.543 0-15.053 1.28-22.306 3.328 25.531-14.097 54.904-26.368 85.863-26.368h0.068c90.061 0 163.328 52.702 163.328 115.592 0 36.182-24.286 84.941-63.3 125.44zM266.087 190.601h43.127c-10.94 34.133-26.675 41.694-46.063 61.833-8.141-18.381-19.097-34.867-32.137-49.271 15.24-1.297 26.334-6.793 35.072-12.561zM145.681 123.341c0 21.043 7.766 39.731 20.327 53.93-49.101 0.529-83.934 41.916-102.469 83.849-38.98-40.926-63.539-86.801-63.539-122.983 0-31.3 17.425-63.232 49.272-84.77 30.584-20.668 70.895-33.399 113.783-33.399h0.051c29.867 0 57.77 11.673 81.869 25.327-5.99-1.382-12.066-2.373-18.227-2.373-44.697 0.017-81.067 36.079-81.067 80.418zM163.106 197.974c52.702 0 95.454 81.425 95.454 134.605 0 52.651-42.838 95.488-95.454 95.488-52.65 0-95.488-42.838-95.488-95.488 0.017-53.179 42.769-134.605 95.488-134.605z" horiz-adv-x="649" />
<glyph unicode="&#xe613;" d="M330.649 298.905c-50.005 0-90.675 40.67-90.675 90.675s40.67 90.675 90.675 90.675 90.675-40.67 90.675-90.675-40.653-90.675-90.675-90.675zM490.12 227.584l-21.334 64c-1.775 5.308-7.39 8.329-12.697 6.981-0.512-0.137-33.007-7.902-66.253-3.72-17.221-10.786-37.393-17.306-59.187-17.306-36.966 0-69.512 18.193-89.942 45.875-30.174-28.808-41.831-64.614-51.32-94.43-5.376-16.845-10.018-31.419-16.947-41.557-38.963-58.402-139.469-59.238-140.458-59.238-3.277 0-6.4-1.536-8.414-4.13-1.98-2.577-2.73-5.957-1.895-9.13l21.334-85.334c1.144-4.728 5.41-8.089 10.309-8.089 5.325 0 127.027 0.955 194.85 82.398 74.565-41.882 103.817-127.949 104.158-128.853 0.921-2.765 2.935-5.051 5.581-6.281 1.416-0.7 3.003-1.058 4.574-1.058 1.28 0 2.594 0.29 3.874 0.734 0.325 0.103 29.815 11.725 75.469 32.666 4.659 2.168 7.117 7.322 5.888 12.288-18.022 72.124-51.387 130.048-99.413 172.817 61.662-1.092 132.079 26.607 135.714 28.041 5.171 2.168 7.885 7.987 6.11 13.329z" />
<glyph unicode="&#xe614;" d="M430.2 315.938c-8.943 0-16.521-5.24-16.521-12.032 0-16.128-14.899-28.723-33.212-28.723-18.346 0-33.246 13.125-33.246 29.252 0 6.912-7.424 12.544-16.538 12.544-8.96 0-16.52-5.752-16.52-12.544 0-16.128-14.933-29.252-33.246-29.252-18.329 0-33.246 13.125-33.246 29.252 0 6.912-7.424 12.544-16.52 12.544-8.943 0-16.52-5.752-16.52-12.544 0-16.128-14.917-29.252-33.246-29.252-18.313 0-33.263 13.125-33.263 29.252 0 6.912-7.39 12.544-16.504 12.544-8.96 0-16.52-5.752-16.52-12.544 0-15.582-13.944-29.201-31.403-30.123 3.26-16.009 9.028-29.611 17.647-40.311l-0.256-0.102 100.83-192.717v-64.819c0-4.608 3.738-8.346 8.363-8.346h100.318c4.608 0 8.346 3.755 8.346 8.346v66.885c0 0.683-0.239 1.263-0.358 1.861l94.651 190.037c11.161 15.274 18.381 37.273 18.381 69.342 0 3.874-0.341 7.697-0.598 11.52-0.325-0.069-0.546-0.069-0.819-0.069zM215.279 51.558l-83.661 159.932c14.25-6.041 31.061-9.472 51.234-9.472h23.416l20.566-150.459h-11.554zM243.695 51.558l-20.565 150.459h66.423l-20.548-150.459h-25.31zM303.104 51.558h-17.272l20.548 150.459h22.767c17.015 0 36.181 1.69 53.317 8.943l-79.36-159.402zM81.784 290.867c9.114 0 16.52 6.161 16.52 13.056 0 16.128 14.916 29.525 33.229 29.525s33.246-12.987 33.246-29.133c0-6.776 7.577-12.459 16.537-12.459 9.113 0 16.504 5.666 16.504 12.561 0 16.128 14.934 29.269 33.263 29.269s33.246-13.125 33.246-29.235c0-6.81 7.56-12.544 16.503-12.544 9.147 0 16.538 5.615 16.538 12.544 0 16.111 14.933 29.252 33.246 29.252s33.246-13.142 33.246-29.252c0-6.81 7.56-12.544 16.52-12.544 9.096 0 16.52 5.615 16.52 12.544 0 15.786 14.302 27.614 32.12 28.109-13.534 83.456-85.88 147.439-173.090 147.439-96.802 0-175.548-78.745-175.548-175.548 0-4.779 0.478-9.079 0.853-13.517 0.222-0.017 0.409-0.069 0.546-0.069z" />
<glyph unicode="&#xe615;" d="M497.305 262.058c-3.635 4.625-10.325 5.427-14.967 1.809-29.627-23.245-65.178-1.416-81.834 11.69l5.888 5.854c1.979 1.997 3.123 4.727 3.123 7.56 0 2.816-1.11 5.513-3.123 7.527l-22.613 22.63 52.805 52.804c4.164 4.165 4.164 10.906 0 15.070l-45.243 45.278c-1.979 1.997-4.711 3.123-7.543 3.123s-5.529-1.109-7.51-3.123l-188.826-188.809c0.29 2.56-0.341 5.137-1.792 7.237l-38.213 55.569c-1.792 2.629-4.659 4.301-7.816 4.591-3.226 0.29-6.28-0.837-8.517-3.089l-64.12-64.085c-2.201-2.219-3.328-5.256-3.089-8.38 0.239-3.106 1.826-5.957 4.352-7.782l54.255-39.526c1.468-1.075 3.225-1.775 5.052-1.997l2.184-0.256-31.010-30.976c-0.837-0.837-2.833-1.997-4.745-3.14-3.209-1.861-7.254-4.199-10.803-7.765-8.858-8.892-13.909-20.599-14.233-33.007-0.325-12.561 4.216-24.166 12.731-32.666 8.311-8.312 20.156-13.107 32.495-13.107h0.017c12.851 0 24.883 4.915 33.826 13.875 3.482 3.498 5.837 7.424 7.749 10.565 1.161 1.894 2.355 3.909 3.311 4.83l179.456 179.49 22.63-22.596c4.164-4.165 10.906-4.165 15.070 0l9.13 9.096c16.709-13.654 42.035-27.87 68.335-27.87 14.097 0 28.433 4.096 41.831 14.575 4.557 3.669 5.359 10.393 1.758 15.002zM46.233 241.476c2.714 0 5.427 1.024 7.51 3.089l76.663 76.015c4.181 4.147 4.215 10.888 0.069 15.070s-10.906 4.198-15.087 0.086l-76.663-76.015c-4.199-4.147-4.215-10.905-0.069-15.087 2.082-2.117 4.813-3.157 7.578-3.157zM67.789 86.341c-4.147 4.164-10.906 4.233-15.087 0.068l-37.12-36.898c-2.031-2.031-3.191-4.796-3.158-7.663 0.034-2.901 1.211-5.632 3.294-7.629l19.559-18.671c2.065-1.945 4.71-2.935 7.355-2.935 2.526 0 5.103 0.904 7.134 2.731l38.878 34.901c4.386 3.909 4.745 10.666 0.802 15.070-3.891 4.335-17.51 16.81-21.657 21.026z" />
<glyph unicode="&#xe616;" d="M439.108 326.4h-280.866c-49.869 0-92.007-41.83-92.007-93.866s41.745-93.866 91.102-93.866h282.675c49.374 0 91.102 41.831 91.102 93.867s-42.154 93.867-92.007 93.867zM224.546 81.971c1.468-4.369 5.53-11.571 10.12-11.571h149.334c4.591 0 8.67 7.202 10.137 11.571l11.793 39.629h-193.178l11.793-39.629zM54.306 188.672l-52.429-75.947c-2.236-3.243-2.491-11.776-0.665-15.291 1.861-3.515 5.479-9.967 9.489-9.967h85.334c2.867 0 5.632 5.41 7.629 7.475l22.425 25.173c-31.949 10.018-58.454 36.915-71.782 68.557zM54.92 281.873c13.926 31.659 41.113 56.303 73.779 65.775l-25.566 25.088c-1.963 1.775-4.489 4.864-7.134 4.864h-85.334c-3.994 0-7.646-4.369-9.506-7.902-1.809-3.533-1.502-8.875 0.819-12.117l52.941-75.708z" horiz-adv-x="529" />
<glyph unicode="&#xe617;" d="M457.95 183.466c0 85.555-68.454 155.273-153.395 157.627v19.439h85.334c1.075 0 2.134 0.256 3.106 0.631 0.973-0.358 1.997-0.631 3.106-0.631 4.694 0 8.534 3.823 8.534 8.534 0 62.208-50.62 110.933-115.2 110.933-64.597 0-115.2-48.726-115.2-110.933 0-4.711 3.823-8.534 8.534-8.534 0.393 0 0.768 0.17 1.143 0.239 0.41-0.051 0.751-0.239 1.178-0.239h102.4v-19.832c-73.335-5.82-132.574-61.918-143.343-133.769h-10.257v85.334c0 1.775-0.666 3.328-1.605 4.694 0.939 1.365 1.605 2.935 1.605 4.693 0 4.711-3.84 8.534-8.534 8.534-65.349 0-122.675-53.828-122.675-115.2 0-60.126 55.091-112.896 118.75-114.995 1.177-0.632 2.492-1.058 3.909-1.058 4.693 0 8.533 3.823 8.533 8.534v102.4h8.67c-0.102-2.134-0.341-4.233-0.341-6.4 0-87.074 70.793-157.866 157.867-157.866 7.322 0 14.473 0.666 21.538 1.639v-59.238h17.067v62.567c53.965 13.637 96.956 55.006 112.709 108.101h57.959v17.067h-53.999c1.622 9.011 2.611 18.262 2.611 27.733zM370.125 113.425c-1.673-1.673-3.857-2.491-6.041-2.491-2.202 0-4.386 0.837-6.041 2.491l-64 64c-3.328 3.328-3.328 8.738 0 12.066l42.666 42.666c3.328 3.328 8.738 3.328 12.066 0s3.328-8.738 0-12.066l-36.625-36.625 57.959-57.959c3.345-3.345 3.345-8.738 0.017-12.083z" />
<glyph unicode="&#xe618;" d="M95.659 309.743c5.649-1.707 11.606 1.519 13.261 7.168 19.234 64.58 79.787 109.704 147.234 109.704 67.464 0 128-45.125 147.269-109.704 1.365-4.625 5.615-7.629 10.223-7.629 1.007 0 2.031 0.154 3.038 0.461 5.666 1.673 8.892 7.594 7.202 13.243-21.913 73.591-90.88 124.945-167.697 124.945-76.834 0-145.784-51.37-167.68-124.945-1.707-5.649 1.485-11.589 7.151-13.243zM102.4 221.935h307.2v-119.466h-307.2v119.466zM494.933 290.202h-156.467c-9.541 51.2-42.649 64-82.296 64-39.629 0-72.738-12.8-82.279-64h-156.826c-17.067 0-17.067-11.161-17.067-17.067v-241.203c0-5.905 0-14.797 17.067-14.797h68.266v-17.067h17.067v17.067h307.2v-17.067h17.067v17.067h68.267c17.067 0 17.067 8.892 17.067 14.797v241.203c0 5.905 0 17.067-17.067 17.067zM256.171 332.869c27.801 0 51.234-8.534 60.091-42.667h-120.115c8.806 34.134 32.256 42.666 60.024 42.666zM426.666 96.068c0-5.905-4.762-10.666-10.666-10.666h-320c-5.905 0-10.666 4.762-10.666 10.666v132.267c0 5.905 4.761 10.666 10.666 10.666h320c5.905 0 10.666-4.762 10.666-10.666v-132.267z" />
<glyph unicode="&#xe619;" d="M264.738 220.279c0-6.486-5.274-11.742-11.742-11.742-6.486 0-11.742 5.274-11.742 11.742s5.256 11.742 11.742 11.742c6.468 0 11.742-5.256 11.742-11.742zM160.614 409.959c-2.492 3.225-4.915 6.093-7.237 8.431-0.29 0.375-0.427 0.853-0.819 1.195-0.751 0.768-1.655 1.297-2.458 2.014-3.021 2.714-5.734 4.813-7.919 6.587l-0.205-0.068c-30.037 20.394-73.421 17.63-99.567-8.534-14.678-14.695-22.835-34.219-22.835-55.040 0-16.999 5.666-33.024 15.667-46.37 0.205-0.375 0.342-0.802 0.529-1.161 3.993-6.758 11.503-14.439 19.968-21.691 19.217 50.244 56.951 91.204 104.874 114.637zM469.64 419.601c-26.129 26.163-69.529 28.928-99.533 8.534l-0.239 0.068c-2.168-1.775-4.864-3.874-7.919-6.605-0.768-0.717-1.724-1.229-2.491-1.997-0.358-0.358-0.495-0.837-0.802-1.195-2.765-2.816-5.735-6.502-8.755-10.649 47.002-24.423 83.575-65.979 101.7-116.327 10.308 8.397 19.882 17.647 24.576 25.634 0.256 0.358 0.358 0.768 0.529 1.161 10.001 13.346 15.667 29.371 15.667 46.37 0.086 20.787-8.022 40.328-22.733 55.006zM442.863 220.279c0-65.365-33.195-123.119-83.609-157.286l20.582-41.147c2.646-5.291 0.529-11.707-4.762-14.319-1.502-0.768-3.123-1.11-4.745-1.11-3.925 0-7.714 2.168-9.558 5.922l-19.899 39.8c-26.3-13.807-56.2-21.692-87.911-21.692-31.693 0-61.56 7.851-87.876 21.692l-19.899-39.8c-1.894-3.755-5.632-5.922-9.558-5.922-1.605 0-3.226 0.358-4.762 1.11-5.257 2.594-7.39 9.029-4.761 14.319l20.582 41.147c-50.415 34.168-83.609 91.904-83.609 157.286 0 104.721 85.197 189.935 189.901 189.935 104.721 0 189.935-85.231 189.883-189.935zM335.394 301.943c-4.164 4.165-10.803 4.165-14.933 0l-51.968-52.275c-0.256 0.137-0.443 0.205-0.683 0.341-0.819 0.41-1.604 0.853-2.474 1.195-0.188 0.069-0.325 0.188-0.512 0.256h-0.29c-0.973 0.358-1.997 0.666-3.021 0.939v106.018c0 5.905-2.628 10.666-8.534 10.666-5.888 0-8.534-4.762-8.534-10.666v-106.035c-14.268-3.789-24.832-16.64-24.832-32.086 0-18.415 14.934-33.365 33.365-33.365 18.415 0 33.365 14.95 33.365 33.365 0 5.171-1.28 9.984-3.362 14.353l52.224 52.241c4.164 4.147 4.335 10.905 0.188 15.053z" />
<glyph unicode="&#xe61a;" d="M315.017 238.233c45.671 6.434 90.368 51.217 98.253 98.236-23.808-3.413-47.531-16.008-66.56-35.686-17.903-18.432-29.099-40.704-31.693-62.55zM102.281 336.486c7.885-47.018 52.582-91.801 98.236-98.235-2.611 21.845-13.79 44.1-31.642 62.566-19.047 19.644-42.803 32.256-66.594 35.669zM256 480c-165.103 0-256-68.182-256-192 0-144.025 118.118-320 256-320 137.865 0 256 175.975 256 320 0 123.818-90.931 192-256 192zM211.609 224c-64.563 0-129.877 61.303-131.857 127.693-0.085 2.935 1.024 3.789 3.055 5.837 2.031 2.065 5.189 1.997 7.731 2.219 33.331-0.409 67.447-16.623 93.627-43.623 24.883-25.685 38.827-54.442 38.213-85.401-0.102-5.786-4.83-6.759-10.632-6.759h-0.137v0.034zM231.065 117.334c0-5.905-2.645-10.666-8.534-10.666-5.905 0-8.534 4.762-8.534 10.666v21.334c0 5.905 2.629 10.666 8.534 10.666 5.888 0 8.534-4.762 8.534-10.666v-21.334zM299.332 117.334c0-5.905-2.646-10.666-8.534-10.666-5.905 0-8.534 4.762-8.534 10.666v21.334c0 5.905 2.628 10.666 8.534 10.666 5.888 0 8.534-4.762 8.534-10.666v-21.334zM303.906 224c0 0-0.12 0-0.137 0-5.803 0-10.53 0.7-10.649 6.502-0.58 30.959 13.346 61.44 38.246 87.142 26.163 27 60.296 41.677 93.627 42.103 3.055 0.12 5.7-1.622 7.697-3.721 2.065-2.048 3.175-1.161 3.089-4.062-1.997-66.441-67.311-127.966-131.874-127.966z" />
<glyph unicode="&#xe61b;" d="M255.659 334.472c-35.294 0-64-28.706-64-64 0-35.277 28.706-64 64-64 35.26 0 64 28.74 64 64 0 35.294-28.706 64-64 64zM255.659 249.139c-11.742 0-21.334 9.575-21.334 21.334s9.591 21.334 21.334 21.334c11.742 0 21.334-9.575 21.334-21.334s-9.591-21.334-21.334-21.334zM487.236 330.12c0.768 1.485-0.495 3.072-0.495 4.813v42.666c0 51.030-26.402 76.8-71.065 76.8h-32.017c-5.905 0-10.666-2.628-10.666-8.534s4.762-8.534 10.666-8.534h32c39.373 0 53.999-30.208 53.999-59.733v-26.829c-51.2 38.332-123.307 63.163-213.333 63.163-90.061 0-162.133-24.832-213.333-63.163v26.829c0 35.294 28.041 59.733 63.334 59.733h21.334c5.888 0 10.666 2.629 10.666 8.534s-4.779 8.534-10.666 8.534h-21.334c-47.035 0-80.384-29.764-80.384-76.8v-42.666c0-1.758-1.945-3.328-1.177-4.813-14.438-18.108-23.825-38.212-23.825-59.648 0-80.452 111.821-143.428 255.385-143.428 143.53 0 254.788 62.976 254.788 143.428-0.051 21.436-9.438 41.541-23.877 59.648zM255.659 185.139c-47.053 0-85.334 38.298-85.334 85.334s38.281 85.334 85.334 85.334c47.036 0 85.334-38.281 85.334-85.334s-38.298-85.334-85.334-85.334zM383.659 78.933h-22.971c-19.2 0-35.243 13.295-39.697 31.147-20.873-2.782-42.632-4.403-65.331-4.403-22.715 0-44.459 1.622-65.365 4.403-4.421-17.834-20.446-31.147-39.663-31.147h-22.971c-51.832 0-84.668-29.32-84.668-74.666v-10.666h426.666v10.666c0.017 45.346-34.151 74.666-85.999 74.666z" />
<glyph unicode="&#xe61c;" d="M503.483 300.613h-21.248c-4.421 7.97-13.738 21.334-26.607 21.334-12.834 0-22.169-13.363-26.59-21.334h-293.735c-4.028 33.963-31.368 68.625-67.038 68.625-50.33 0-68.266-46.2-68.266-89.43v-192.529c0-4.711 3.823-8.534 8.534-8.534h460.8c4.694 0 8.534 3.823 8.534 8.534v8.943c0 38.024-33.775 62.635-68.471 66.935 0.034 0.341 0.205 0.615 0.205 0.921v17.067c0 4.711-3.84 8.534-8.534 8.534-4.711 0-8.534-3.823-8.534-8.534v-17.067h-198.502l28.006 51.2h204.63v-17.067c0-4.711 3.84-8.534 8.534-8.534s8.534 3.823 8.534 8.534v17.067c0 0.086-0.034 0.154-0.051 0.239 38.469 1.229 68.318 32.256 68.318 71.851v4.711c0.017 4.71-3.806 8.534-8.517 8.534zM68.642 250.129c-18.825 0-34.133 15.309-34.133 34.133s15.309 34.133 34.133 34.133c18.808 0 34.133-15.309 34.133-34.133s-15.326-34.133-34.133-34.133zM85.709 284.262c0-9.43-7.638-17.066-17.067-17.066s-17.067 7.637-17.067 17.066c0 9.43 7.638 17.066 17.067 17.066s17.067-7.637 17.067-17.066z" />
<glyph unicode="&#xe61d;" d="M494.933 343.466h-477.866c-9.421 0-17.067 7.646-17.067 17.067s7.646 17.067 17.067 17.067h477.866c9.421 0 17.067-7.646 17.067-17.067s-7.646-17.067-17.067-17.067zM426.666 275.2h-358.4c-9.421 0-17.067 7.646-17.067 17.066s7.646 17.067 17.067 17.067h358.4c9.421 0 17.067-7.646 17.067-17.067s-7.646-17.066-17.067-17.066zM341.334 206.933h-170.667c-9.421 0-17.066 7.646-17.066 17.067s7.646 17.066 17.066 17.066h170.667c9.421 0 17.067-7.646 17.067-17.066s-7.646-17.067-17.067-17.067zM409.6 138.666h-324.267c-9.421 0-17.067 7.646-17.067 17.067s7.646 17.067 17.067 17.067h324.267c9.421 0 17.067-7.646 17.067-17.067s-7.646-17.067-17.067-17.067zM494.933 70.4h-477.866c-9.421 0-17.067 7.646-17.067 17.067s7.646 17.067 17.067 17.067h477.866c9.421 0 17.067-7.646 17.067-17.067s-7.646-17.067-17.067-17.067z" />
<glyph unicode="&#xe61e;" d="M494.933 343.466h-477.866c-9.421 0-17.067 7.646-17.067 17.067s7.646 17.067 17.067 17.067h477.866c9.421 0 17.067-7.646 17.067-17.067s-7.646-17.067-17.067-17.067zM494.933 275.2h-477.866c-9.421 0-17.067 7.646-17.067 17.066s7.646 17.067 17.067 17.067h477.866c9.421 0 17.067-7.646 17.067-17.067s-7.646-17.066-17.067-17.066zM494.933 206.933h-477.866c-9.421 0-17.067 7.646-17.067 17.067s7.646 17.066 17.067 17.066h477.866c9.421 0 17.067-7.646 17.067-17.066s-7.646-17.067-17.067-17.067zM494.933 138.666h-477.866c-9.421 0-17.067 7.646-17.067 17.067s7.646 17.067 17.067 17.067h477.866c9.421 0 17.067-7.646 17.067-17.067s-7.646-17.067-17.067-17.067zM494.933 70.4h-477.866c-9.421 0-17.067 7.646-17.067 17.067s7.646 17.067 17.067 17.067h477.866c9.421 0 17.067-7.646 17.067-17.067s-7.646-17.067-17.067-17.067z" />
<glyph unicode="&#xe61f;" d="M494.933 343.466h-477.866c-9.421 0-17.067 7.646-17.067 17.067s7.646 17.067 17.067 17.067h477.866c9.421 0 17.067-7.646 17.067-17.067s-7.646-17.067-17.067-17.067zM494.933 275.2h-477.866c-9.421 0-17.067 7.646-17.067 17.066s7.646 17.067 17.067 17.067h477.866c9.421 0 17.067-7.646 17.067-17.067s-7.646-17.066-17.067-17.066zM494.933 206.933h-477.866c-9.421 0-17.067 7.646-17.067 17.067s7.646 17.066 17.067 17.066h477.866c9.421 0 17.067-7.646 17.067-17.066s-7.646-17.067-17.067-17.067zM494.933 138.666h-477.866c-9.421 0-17.067 7.646-17.067 17.067s7.646 17.067 17.067 17.067h477.866c9.421 0 17.067-7.646 17.067-17.067s-7.646-17.067-17.067-17.067zM392.534 70.4h-256c-9.421 0-17.067 7.646-17.067 17.067s7.646 17.067 17.067 17.067h256c9.421 0 17.067-7.646 17.067-17.067s-7.646-17.067-17.067-17.067z" />
<glyph unicode="&#xe620;" d="M494.933 343.466h-477.866c-9.421 0-17.067 7.646-17.067 17.067s7.646 17.067 17.067 17.067h477.866c9.421 0 17.067-7.646 17.067-17.067s-7.646-17.067-17.067-17.067zM494.933 275.2h-477.866c-9.421 0-17.067 7.646-17.067 17.066s7.646 17.067 17.067 17.067h477.866c9.421 0 17.067-7.646 17.067-17.067s-7.646-17.066-17.067-17.066zM494.933 206.933h-477.866c-9.421 0-17.067 7.646-17.067 17.067s7.646 17.066 17.067 17.066h477.866c9.421 0 17.067-7.646 17.067-17.066s-7.646-17.067-17.067-17.067zM494.933 138.666h-477.866c-9.421 0-17.067 7.646-17.067 17.067s7.646 17.067 17.067 17.067h477.866c9.421 0 17.067-7.646 17.067-17.067s-7.646-17.067-17.067-17.067zM494.933 70.4h-256c-9.421 0-17.066 7.646-17.066 17.067s7.646 17.067 17.066 17.067h256c9.421 0 17.067-7.646 17.067-17.067s-7.646-17.067-17.067-17.067z" />
<glyph unicode="&#xe621;" d="M494.933 343.466h-477.866c-9.421 0-17.067 7.646-17.067 17.067s7.646 17.067 17.067 17.067h477.866c9.421 0 17.067-7.646 17.067-17.067s-7.646-17.067-17.067-17.067zM494.933 275.2h-477.866c-9.421 0-17.067 7.646-17.067 17.066s7.646 17.067 17.067 17.067h477.866c9.421 0 17.067-7.646 17.067-17.067s-7.646-17.066-17.067-17.066zM494.933 206.933h-477.866c-9.421 0-17.067 7.646-17.067 17.067s7.646 17.066 17.067 17.066h477.866c9.421 0 17.067-7.646 17.067-17.066s-7.646-17.067-17.067-17.067zM494.933 138.666h-477.866c-9.421 0-17.067 7.646-17.067 17.067s7.646 17.067 17.067 17.067h477.866c9.421 0 17.067-7.646 17.067-17.067s-7.646-17.067-17.067-17.067zM273.067 70.4h-256c-9.421 0-17.067 7.646-17.067 17.067s7.646 17.067 17.067 17.067h256c9.421 0 17.067-7.646 17.067-17.067s-7.646-17.067-17.067-17.067z" />
<glyph unicode="&#xe622;" d="M494.933 343.466h-477.866c-9.421 0-17.067 7.646-17.067 17.067s7.646 17.067 17.067 17.067h477.866c9.421 0 17.067-7.646 17.067-17.067s-7.646-17.067-17.067-17.067zM494.933 275.2h-358.4c-9.421 0-17.067 7.646-17.067 17.066s7.646 17.067 17.067 17.067h358.4c9.421 0 17.067-7.646 17.067-17.067s-7.646-17.066-17.067-17.066zM494.933 206.933h-170.667c-9.421 0-17.067 7.646-17.067 17.067s7.646 17.066 17.067 17.066h170.667c9.421 0 17.067-7.646 17.067-17.066s-7.646-17.067-17.067-17.067zM494.933 138.666h-324.267c-9.421 0-17.066 7.646-17.066 17.067s7.646 17.067 17.066 17.067h324.267c9.421 0 17.067-7.646 17.067-17.067s-7.646-17.067-17.067-17.067zM494.933 70.4h-477.866c-9.421 0-17.067 7.646-17.067 17.067s7.646 17.067 17.067 17.067h477.866c9.421 0 17.067-7.646 17.067-17.067s-7.646-17.067-17.067-17.067z" />
<glyph unicode="&#xe623;" d="M494.933 343.466h-477.866c-9.421 0-17.067 7.646-17.067 17.067s7.646 17.067 17.067 17.067h477.866c9.421 0 17.067-7.646 17.067-17.067s-7.646-17.067-17.067-17.067zM392.534 275.2h-375.466c-9.421 0-17.067 7.646-17.067 17.066s7.646 17.067 17.067 17.067h375.466c9.421 0 17.067-7.646 17.067-17.067s-7.646-17.066-17.067-17.066zM187.733 206.933h-170.667c-9.421 0-17.067 7.646-17.067 17.067s7.646 17.066 17.067 17.066h170.667c9.421 0 17.066-7.646 17.066-17.066s-7.646-17.067-17.066-17.067zM341.334 138.666h-324.267c-9.421 0-17.067 7.646-17.067 17.067s7.646 17.067 17.067 17.067h324.267c9.421 0 17.067-7.646 17.067-17.067s-7.646-17.067-17.067-17.067zM273.067 70.4h-256c-9.421 0-17.067 7.646-17.067 17.067s7.646 17.067 17.067 17.067h256c9.421 0 17.067-7.646 17.067-17.067s-7.646-17.067-17.067-17.067z" />
<glyph unicode="&#xe624;" d="M491.861 163.072c-11.759 0-21.334-9.575-21.334-21.317 0-32.887-16.623-68.010-63.266-68.010-23.228 0-39.611 50.893-55.382 100.13-2.151 6.707-6.673 13.5-6.673 20.394v232.755c0 11.759-13.858 21.317-25.6 21.317-11.759 0-25.6-9.558-25.6-21.317v-133.086c-17.067 41.865-58.385 72.721-116.582 72.721-113.084-0.017-178.449-68.659-178.449-183.654 0-104.534 75.042-183.33 173.159-183.33 71.885 0 131.345 42.171 157.73 105.659 16.81-42.36 38.451-74.257 77.125-74.257 63.334 0 106.018 44.442 106.018 110.626 0.051 11.827-9.353 21.368-21.145 21.368zM294.041 182.409c0-81.186-50.090-140.118-125.115-140.118s-127.283 59.17-127.283 140.697c0 64.341 20.668 141.022 134.742 141.022 64.973 0 100.625-55.45 117.692-136.892l-0.034-4.711z" />
<glyph unicode="&#xe625;" d="M109.927 250.505h43.673v40.618c-17.066-4.933-38.673-23.552-43.673-40.618zM425.267 150.562c-29.44 0-53.334-23.877-53.334-53.334 0-29.406 23.894-53.334 53.334-53.334 29.389 0 53.334 23.928 53.334 53.334 0 29.44-23.945 53.334-53.334 53.334zM503.466 352.904h-315.733v34.134c0 5.905 0 17.067-17.066 17.067s-17.066-11.162-17.066-17.067v-34.134h-23.466c-47.035 0-78.933-36.164-78.933-83.2v-36.966l-41.029-18.398c-3.601-1.809-10.171-5.512-10.171-9.575v-124.928h33.502c-1.706 0-2.901 11.707-2.901 18.466 0 41.165 33.502 74.137 74.666 74.137s74.667-32.7 74.667-73.865c0-6.759-1.212-18.739-2.952-18.739h176.521c-1.707 0-2.901 12.749-2.901 19.541 0 28.655 16.367 48.726 40.106 65.792 0 0 10.923 2.406 16.743 4.027 6.075 1.57 11.776 2.697 18.346 2.697 41.165 0 74.376-32.426 74.376-73.608 0-6.776-1.485-18.466-3.209-18.466h15.036v264.534c0 5.922-2.628 8.55-8.534 8.55zM170.667 237.704c0-5.905-2.629-4.267-8.534-4.267h-64c-5.905 0-10.666 1.57-10.666 7.475 0 49.595 48.247 75.059 73.609 75.059 5.905 0 9.608-6.366 9.608-12.271l-0.017-65.997zM443.733 224.905c0-4.71-3.84-8.533-8.534-8.533h-25.6v-25.6c0-4.694-3.84-8.534-8.534-8.534h-51.2c-4.693 0-8.534 3.84-8.534 8.534v25.6h-25.6c-4.693 0-8.534 3.823-8.534 8.534v51.2c0 4.711 3.84 8.534 8.534 8.534h25.6v25.6c0 4.71 3.84 8.534 8.534 8.534h51.2c4.694 0 8.534-3.823 8.534-8.534v-25.6h25.6c4.694 0 8.534-3.823 8.534-8.534v-51.2zM392.534 276.105v25.6h-34.134v-25.6c0-4.711-3.84-8.534-8.534-8.534h-25.6v-34.134h25.6c4.693 0 8.534-3.823 8.534-8.534v-25.6h34.134v25.6c0 4.71 3.84 8.534 8.534 8.534h25.6v34.133h-25.6c-4.693 0-8.534 3.823-8.534 8.534zM105.267 150.562c-29.44 0-53.334-23.877-53.334-53.334 0-29.406 23.894-53.334 53.334-53.334 29.389 0 53.334 23.928 53.334 53.334 0 29.44-23.945 53.334-53.334 53.334z" />
<glyph unicode="&#xe626;" d="M466.568 242.21c-29.611 0.546-58.197 0.819-85.64-0.051l-34.986 40.294-6.981-41.66c-59.461-3.499-113.016-11.144-159.71-19.609l10.582 62.566h36.454l35.123-38.366 48.913 38.366h89.31l24.883-30.345 35.141 30.345h52.343v17.067c0 18.79-15.36 34.133-34.134 34.133h-443.733c-18.773 0-34.133-15.343-34.133-34.133v-153.6c0-18.774 15.36-34.134 34.133-34.134h443.733c18.774 0 34.134 15.36 34.134 34.134v133.445l-45.432-38.451zM3.601 166.707l78.677 117.026h45.329l26.573-67.328c-68.266-14.080-119.757-32.512-150.579-49.698zM212.514 164.267h-85.777l-9.984 29.73c13.704 3.294 27.835 8.243 42.343 10.837l12.083-31.096 5.666 33.075c14.489 2.27 29.184 3.192 43.981 4.898l-8.311-47.445zM445.832 164.267l-29.764 33.45-39.543-33.45h-93.355l8.977 53.555c14.575 0.904 29.014 3.584 43.111 4.096l-7.339-46.524 57.668 47.65c27.306 0.307 52.293-1.997 73.506-2.491l42.308-56.303h-55.569zM80.623 216.729h28.655l-10.343 28.672z" />
<glyph unicode="&#xe627;" d="M509.184 157.798l-59.443 46.575c-6.759 5.291-16.009 6.024-23.466 1.877l-66.117-36.488c-10.308-5.717-14.063-18.688-8.38-28.997 5.7-10.308 18.671-14.046 28.979-8.38l28.041 17.817c-13.005-66.714-71.646-118.647-139.913-127.744v245.897h51.2c11.793 0 21.334 13.807 21.334 25.6s-9.541 25.6-21.334 25.6h-51.2v26.146c34.134 8.841 46.933 32.29 46.933 60.058 0 35.294-26.573 64-61.867 64-35.277 0-62.942-28.706-62.942-64 0-27.767 18.91-51.217 43.742-60.058v-26.146h-42.666c-11.776 0-21.334-13.807-21.334-25.6s9.558-25.6 21.334-25.6h42.666v-245.88c-67.976 9.13-122.607 60.997-135.612 127.659l32.136-17.733c10.309-5.666 23.296-1.911 28.979 8.397s1.911 23.262-8.397 28.997l-66.117 36.488c-7.475 4.096-16.709 3.345-23.466-1.877l-59.461-46.592c-9.267-7.271-10.889-20.668-3.618-29.952 4.215-5.342 10.445-8.175 16.811-8.175 4.625 0 9.233 1.467 13.159 4.557l27.528 21.589c16.674-95.079 99.635-167.595 199.407-167.595 99.738 0 182.665 72.482 199.407 167.475l27.409-21.47c3.909-3.072 8.534-4.557 13.159-4.557 6.332 0 12.595 2.799 16.793 8.175 7.219 9.267 5.598 22.664-3.687 29.935zM256.051 427.077c11.759 0 21.334-9.558 21.334-21.334 0-11.759-9.575-21.334-21.334-21.334-11.742 0-21.334 9.575-21.334 21.334 0 11.793 9.575 21.334 21.334 21.334z" />
<glyph unicode="&#xe628;" d="M480.103 156.74l-43.195 74.855c-3.635 6.263-10.325 10.155-17.596 10.155s-13.926-3.891-17.596-10.155l-45.022-77.96c-3.635-6.281-3.635-14.404 0-20.702 3.635-6.281 10.308-10.565 17.596-10.565h21.146c-12.817-68.267-50.346-101.171-118.613-109.602v314.368h39.868c11.23 0 20.293 14.405 20.293 25.6s-9.063 25.6-20.293 25.6h-29.184c13.005 10.053 23.978 26.214 23.978 44.595 0 30.515-25.002 55.347-55.518 55.347s-51.832-24.832-51.832-55.347c0-18.398 3.004-34.543 20.906-44.595h-30.208c-11.196 0-20.31-14.404-20.31-25.6s9.113-25.6 20.31-25.6h47.855v-314.402c-68.266 8.431-113.766 41.336-126.584 109.602h21.163c0.154 0 0.273 0 0.393 0 11.213 0 20.31 9.541 20.31 20.702 0 5.103-1.843 9.933-4.898 13.466l-43.213 74.974c-3.618 6.28-10.308 10.223-17.578 10.223s-13.927-3.84-17.596-10.137l-44.987-77.926c-3.618-6.298-3.618-14.421 0-20.702 3.618-6.298 10.325-10.565 17.596-10.565h27.528c14.882-85.334 90.249-152.627 180.975-152.627 90.743 0 166.11 67.294 180.975 152.627h27.512c0.154 0 0.29 0 0.409 0 11.195 0 20.275 9.506 20.275 20.702 0.051 5.069-1.792 10.103-4.864 13.671z" />
<glyph unicode="&#xe629;" d="M221.679 216.047c-1.468 0.837-6.332 1.263-8.022 1.263-1.843 0-8.875-0.734-8.875-3.055v-103.68c0-3.021 7.97-3.072 8.175-3.072 1.587 0 4.727 0.392 6.042 1.161l97.075 51.985c0.853 0.478 1.775 1.024 1.945 1.246-0.325-0.12-1.075 1.075-3.379 2.406l-92.962 51.746zM477.866 360.687h-119.466v25.753c0 51.507-43.589 93.423-102.4 93.423s-102.4-41.165-102.4-91.801v-27.375h-123.734c-5.905 0-12.8-13.261-12.8-19.166v-362.666c0-5.922 6.895-10.701 12.8-10.701h448c5.905 0 17.067 4.779 17.067 10.701v362.666c0 5.905-11.161 19.166-17.067 19.166zM170.667 388.062c0 38.861 38.28 70.469 85.333 70.469s85.334-32.341 85.334-72.089v-25.754h-170.667v27.375zM327.305 142.063l-96.256-51.968c-4.318-2.491-10.615-3.909-15.958-3.909-15.001 0-27.375 10.479-27.375 24.423v103.663c0 13.91 12.663 24.405 28.075 24.405 5.462 0 11.298-1.382 15.889-4.045l93.44-51.729c9.182-5.342 14.507-13.142 14.507-21.453-0.068-7.765-4.438-14.797-12.322-19.387z" />
<glyph unicode="&#xe62a;" d="M384 317.423h-256c-4.71 0-8.534-3.823-8.534-8.534v-173.995c0-28.194 22.733-55.894 51.2-67.601v-57.942c0-16.128 17.238-32.563 34.133-32.563s34.133 16.435 34.133 32.563v52.070h34.134v-52.070c0-16.128 17.238-32.563 34.134-32.563s34.134 16.435 34.134 32.563v57.122c28.553 10.991 51.2 38.912 51.2 68.421v173.995c0 4.71-3.84 8.534-8.534 8.534zM121.191 343.859c-0.256-2.407 0.597-4.779 2.321-6.571 1.707-1.775 4.113-2.799 6.673-2.799h252.023c2.543 0 4.966 1.024 6.69 2.799s2.543 4.164 2.304 6.571c-4.933 47.223-23.399 73.967-48.333 88.934l20.070 24.696c3.021 3.737 2.287 9.096-1.673 11.963-3.925 2.85-9.608 2.168-12.63-1.57l-22.17-27.306c-21.538 8.209-46.080 10.308-70.264 10.308-25.72 0-51.865-2.338-74.308-11.929l-23.466 28.928c-3.055 3.737-8.704 4.42-12.63 1.57-3.942-2.885-4.677-8.243-1.69-11.981l21.965-27.068c-23.143-15.309-40.209-41.591-44.886-86.545zM448 317.423h-8.534c-16.469 0-29.866-13.398-29.866-29.866v-110.934c0-16.469 13.397-29.866 29.866-29.866h8.534c16.469 0 29.866 13.397 29.866 29.866v110.933c0 16.469-13.397 29.867-29.866 29.867zM72.534 317.423h-8.534c-16.469 0-29.867-13.398-29.867-29.866v-110.934c0-16.469 13.398-29.866 29.867-29.866h8.534c16.469 0 29.867 13.397 29.867 29.866v110.933c0 16.469-13.398 29.867-29.867 29.867z" />
<glyph unicode="&#xe62b;" d="M256 372.992c-62.839 0-110.216 22.921-110.216 53.334s47.377 53.333 110.216 53.333 110.216-22.921 110.216-53.333-47.377-53.334-110.216-53.334zM256 309.674c-94.106 0-170.667-76.561-170.667-170.666s76.561-170.666 170.667-170.666c94.089 0 170.667 76.561 170.667 170.667s-76.561 170.667-170.667 170.667zM192 229.41c23.518 0 42.666-19.149 42.666-42.667 0-5.922-4.762-10.666-10.666-10.666s-10.666 4.762-10.666 10.666c0 11.742-9.575 21.334-21.334 21.334s-21.334-9.575-21.334-21.334c0-5.922-4.762-10.666-10.666-10.666s-10.666 4.762-10.666 10.666c0 23.518 19.149 42.666 42.666 42.666zM256 32.341c-58.811 0-106.666 47.872-106.666 106.666 0 5.905 4.762 10.666 10.666 10.666s10.666-4.779 10.666-10.666c0-47.036 38.281-85.334 85.334-85.334s85.334 38.298 85.334 85.334c0 5.905 4.762 10.666 10.666 10.666s10.666-4.762 10.666-10.666c0-58.829-47.838-106.666-106.666-106.666zM352 176.077c-5.905 0-10.666 4.745-10.666 10.666 0 11.742-9.575 21.334-21.334 21.334-11.742 0-21.334-9.591-21.334-21.334 0-5.922-4.762-10.666-10.666-10.666s-10.666 4.745-10.666 10.666c0 23.518 19.132 42.666 42.666 42.666s42.666-19.149 42.666-42.666c0-5.905-4.762-10.666-10.666-10.666zM484.591 165.7c-1.758-1.075-3.687-1.604-5.615-1.604-3.567 0-7.065 1.792-9.063 5.069-3.106 5-1.57 11.571 3.43 14.661 8.005 4.966 23.774 16.231 37.803 26.675 0.222 4.625 0.853 9.147 0.853 13.841 0 18.398-2.099 36.642-6.024 54.494-14.114-13.96-28.945-27.528-39.885-35.567-1.894-1.399-4.096-2.065-6.298-2.065-3.26 0-6.519 1.502-8.601 4.386-3.464 4.744-2.474 11.418 2.304 14.899 12.066 8.841 30.139 25.89 45.961 42.053-6.229 19.269-14.626 37.888-25.395 55.382-3.891 6.315-14.302 6.315-18.159 0-18.671-30.413-43.827-55.757-73.472-74.82 40.089-35.209 65.553-86.682 65.553-144.094 0-47.872-17.733-91.631-46.814-125.303 55.74 38.57 95.113 98.663 106.838 168.124-9.301-6.759-17.971-12.749-23.416-16.128zM129.57 283.136c-29.611 19.064-54.818 44.374-73.472 74.786-1.946 3.157-5.359 5.086-9.096 5.086-3.721 0-7.151-1.928-9.096-5.086-10.701-17.425-19.081-35.926-25.31-55.109 16.111-16.503 33.741-33.331 44.459-41.284 4.727-3.515 5.718-10.189 2.218-14.916-2.099-2.833-5.325-4.318-8.584-4.318-2.202 0-4.438 0.7-6.349 2.099-9.898 7.321-24.201 20.617-38.297 34.662-3.942-17.937-6.042-36.233-6.042-54.698 0-3.908 0.546-7.646 0.717-11.486 14.882-12.032 30.754-24.542 37.974-28.962 5.001-3.106 6.553-9.659 3.465-14.661-2.031-3.26-5.513-5.069-9.096-5.069-1.912 0-3.874 0.512-5.598 1.57-5.223 3.26-13.755 9.642-23.706 17.459 11.418-70.007 50.995-130.663 107.076-169.472-29.099 33.673-46.831 77.432-46.831 125.303 0 57.395 25.498 108.868 65.57 144.094z" />
<glyph unicode="&#xe62c;" d="M252.536 266.291c41.165 0 74.666 33.485 74.666 74.666 0 41.165-33.502 74.666-74.666 74.666s-74.666-33.502-74.666-74.666c0-41.182 33.485-74.666 74.666-74.666zM227.482 442.18h50.125c4.625 0 8.329 3.909 8.329 8.534s-3.738 8.534-8.329 8.534h-50.125c-4.625 0-8.345-3.909-8.345-8.534s3.738-8.534 8.345-8.534zM252.536 244.958c-28.962 0-54.648 13.158-72.243 33.502-45.773-58.538-87.484-178.552-87.569-260.318 0-4.062 2.304-7.8 5.974-9.608 33.997-16.657 111.257-19.558 154.368-19.763 42.991 0.256 120.2 3.158 154.232 19.763 3.67 1.775 5.99 5.529 5.99 9.608-0.086 82.005-42.103 202.547-87.962 260.881-17.698-20.668-43.571-34.065-72.79-34.065zM464.793 402.363c-2.918 9.933-11.503 16.93-21.743 17.817-10.223 0.99-20.053-4.369-24.695-13.585-16.333-32.171-44.305-63.88-71.987-84.514-1.843-8.635-4.779-16.93-8.755-24.644 26.846-32.051 52.275-83.046 70.349-137.302 21.418 8.635 38.605 22.664 50.91 42.394 39.902 63.863 17.425 161.041 5.922 199.833zM167.766 296.857c-5.12 9.762-8.773 20.394-10.309 31.693-24.883 20.48-49.101 49.066-63.813 78.063-4.677 9.216-14.336 14.575-24.678 13.619-10.291-0.973-18.825-7.97-21.76-17.869-11.52-38.792-33.946-135.919 5.939-199.799 11.23-18.039 26.794-30.993 45.687-39.782 17.869 52.906 42.666 102.519 68.933 134.076z" />
<glyph unicode="&#xe62d;" d="M384 277.333c0-17.672-14.327-32-32-32s-32 14.328-32 32c0 17.673 14.327 32 32 32s32-14.327 32-32zM192 277.333c0-17.672-14.327-32-32-32s-32 14.328-32 32c0 17.673 14.327 32 32 32s32-14.327 32-32zM256 480c-141.159 0-256-114.841-256-256s114.841-256 256-256c141.159 0 256 114.841 256 256s-114.841 256-256 256zM293.905 361.541l85.334 42.666c5.291 2.629 11.69 0.495 14.302-4.762 2.628-5.273 0.495-11.69-4.762-14.302l-85.334-42.667c-1.536-0.785-3.175-1.126-4.762-1.126-3.925 0-7.68 2.167-9.575 5.905-2.611 5.24-0.478 11.639 4.796 14.285zM118.46 399.428c2.645 5.274 9.046 7.407 14.302 4.762l85.334-42.666c5.274-2.629 7.407-9.029 4.779-14.302-1.877-3.738-5.649-5.905-9.558-5.905-1.605 0-3.226 0.358-4.762 1.126l-85.334 42.666c-5.257 2.646-7.39 9.063-4.761 14.319zM160 330.667c29.406 0 53.334-23.911 53.334-53.334s-23.928-53.334-53.334-53.334-53.334 23.911-53.334 53.334 23.927 53.334 53.334 53.334zM400.298 77.654c-4.454-3.891-11.213-3.379-15.036 1.058-32.478 37.632-79.599 59.238-129.263 59.238-49.834 0-97.075-21.692-129.553-59.529-2.117-2.474-5.103-3.704-8.124-3.704-2.475 0-4.933 0.837-6.946 2.56-4.472 3.84-4.984 10.565-1.144 15.019 36.557 42.582 89.669 66.987 145.75 66.987 55.859 0 108.868-24.269 145.408-66.56 3.874-4.522 3.362-11.264-1.092-15.070zM352 224c-29.406 0-53.334 23.911-53.334 53.334s23.928 53.334 53.334 53.334 53.334-23.911 53.334-53.334-23.928-53.334-53.334-53.334z" />
<glyph unicode="&#xe62e;" d="M269.875 373.334c0.392 0 0.837 0.017 1.195 0.085 27.375 3.158 97.604 35.328 103.594 80.743 0.7 5.359-2.697 10.411-7.97 11.742-8.072 2.048-15.974 3.072-23.433 3.072-54.204 0-78.575-54.323-83.917-83.013-0.598-3.328 0.392-6.758 2.697-9.267 2.065-2.168 4.898-3.362 7.834-3.362zM483.43 114.671c-14.302 11.435-22.511 28.194-22.511 46.063 0 10.53 2.885 20.702 8.567 30.157 1.877 3.158 2.014 6.998 0.375 10.291-1.639 3.26-4.796 5.427-8.397 5.837-30.174 3.209-52.941 28.365-52.941 58.488 0 21.111 11.673 40.789 30.361 51.337 3.874 2.134 5.803 7.731 5.171 12.118-0.307 2.082-0.598 4.165-0.598 6.349 0 8.892 2.168 17.733 6.434 26.265 2.338 4.659 1.024 10.309-3.209 13.398-48.896 35.874-113.238 29.474-175.462-18.808-25.071 27.512-56.030 42.001-90.043 42.001-74.121 0-156.655-75.895-156.655-184.798 0-99.635 67.225-181.692 130.167-225.314 8.67-6.041 17.374-8.926 26.59-8.926 14.353 0 26.709 7.099 39.766 14.609 14.472 8.312 29.423 16.964 48.793 16.964 19.387 0 34.321-8.635 48.76-16.998 13.039-7.51 25.361-14.643 39.731-14.643v0c9.165 0 17.834 2.901 26.505 8.892 42.308 29.252 78.336 69.564 101.359 113.442 2.423 4.522 1.246 10.103-2.765 13.278z" />
<glyph unicode="&#xe62f;" d="M361.438 193.826l7.271 2.663c0.358 9.267-0.87 18.5-2.697 27.648l-20.599-7.595c4.557-8.123 9.694-15.94 16.026-22.716zM214.656 318.456l-9.148-21.078-21.086 9.147 9.148 21.078 21.086-9.147zM87.466 275.166v-85.334h19.2c0.478 0 0.871-0.205 1.331-0.273l37.137 85.606h-57.668zM360.38 244.856c-10.223 29.286-27.529 55.142-39.493 69.854 0.409-18.995 3.993-49.954 15.291-78.779l24.2 8.926zM140.63 205.755l35.576 82.014 21.060-9.139-35.576-82.014-21.060 9.139zM129.997 184.849l-6.332-14.575-0.921-30.993 21.965 21.863 6.332 14.575zM304.964 275.166h-88.303l-37.035-85.334h164.489c-21.453 17.067-33.195 51.2-39.151 85.334zM377.583 172.135c-1.263 0-2.509-0.239-3.755-0.666-2.68-1.007-4.83-3.003-6.041-5.632-1.178-2.628-1.314-5.529-0.325-8.226 2.304-6.195 12.459-19.558 22.101-28.672 1.399 13.159 0.461 29.901-1.826 36.096-1.57 4.267-5.632 7.099-10.154 7.099zM374.409 275.166c10.274-34.133 17.101-54.255 15.104-80.128 3.959-1.639 7.577-2.799 10.632-5.205h28.638v85.334h-54.375zM256 469.334c-135.287 0-245.333-110.046-245.333-245.334 0-135.304 110.046-245.333 245.333-245.333s245.333 110.029 245.333 245.333-110.046 245.333-245.333 245.333zM437.334 155.699h-26.931c2.134-17.067 1.416-38.451-4.505-51.353-1.178-2.577-3.328-3.481-6.007-4.488-1.195-0.426-2.474-0.12-3.721-0.12-1.536 0-3.055 0.598-4.471 1.212-16.81 7.748-39.475 33.962-44.288 46.916-1.195 3.192-1.724 7.8-1.826 7.8h-176.231l-3.755-7.765c-0.529-1.263-1.297-1.809-2.253-2.799l-42.41-41.882c-2.048-1.997-4.761-2.969-7.492-2.969-1.433 0-2.867 0.358-4.249 0.973-4.010 1.758-6.553 3.635-6.434 8.005l1.451 46.507h-29.526c-5.905 0-4.266 9.046-4.266 14.967v106.666c0 5.888-1.638 14.899 4.266 14.899h79.719l24.098 53.453c1.109 2.594 3.226 3.584 5.854 4.625s5.564 0.461 8.175-0.683l40.653-17.886c5.393-2.373 7.868-6.656 5.53-12.066l-12.766-27.443h75.571c-2.714 17.067-2.202 38.127-0.7 45.551 0.443 2.236 1.809 7.919 8.209 10.291 5.445 1.997 10.342 3.158 22.87-10.718 9.165-10.189 21.351-28.058 32.239-45.125h73.233c5.905 0 8.534-8.994 8.534-14.899v-106.666c-0.034-5.939-2.663-15.002-8.567-15.002z" />
<glyph unicode="&#xe630;" d="M361.608 392.192c-25.907 0-43.503-13.261-59-24.969-11.759-8.892-22.409-16.555-35.772-19.439-0.239 11.196-0.802 21.402-1.707 30.72 28.502 0.956 99.072 30.754 109.039 74.718 1.195 5.273-1.775 14.438-6.827 16.231-10.428 3.669-20.634 5.034-30.327 5.034-45.159 0-68.574-38.981-78.233-61.269-11.077 36.881-34.526 50.534-77.090 50.534-5.905 0-10.667-4.762-10.667-10.666s4.762-10.666 10.666-10.666c41.591 0 62.106-9.814 63.829-94.669-13.5 2.816-24.201 10.513-36.079 19.473-15.513 11.708-33.109 24.969-59.017 24.969-76.151 0-140.493-84.446-140.493-184.44 0-99.635 67.448-181.691 130.577-225.314 8.584-5.939 18.5-8.926 29.508-8.926 21.555 0 43.554 11.589 61.218 20.873 9.591 5.034 20.394 10.735 24.798 10.735 6.298 0 17.784-6.058 28.928-11.913 17.425-9.216 37.274-19.644 57.481-19.644 10.718 0 20.48 3.003 29.082 8.909 63.13 43.623 130.594 125.679 130.594 225.314-0.017 99.942-64.358 184.405-140.51 184.405z" />
<glyph unicode="&#xe631;" d="M384 101.462c-2.56 0-5.171 0.938-7.202 2.833l-21.334 19.558c-4.335 3.959-4.625 10.718-0.649 15.053s10.752 4.625 15.053 0.649l13.875-12.714 36.728 35.942c-9.659 13.397-25.361 22.255-43.127 22.255-29.44 0-53.334-23.911-53.334-53.334s23.894-53.334 53.334-53.334c29.423 0 53.334 23.911 53.334 53.334 0 3.481-0.358 6.844-1.058 10.189l-38.144-37.359c-2.082-2.031-4.779-3.072-7.475-3.072zM512 352v68.267c0 5.905 0 17.066-17.067 17.066h-477.866c-17.067 0-17.067-11.161-17.067-17.066v-68.267h512zM138.667 390.4c5.905 0 10.667-4.761 10.667-10.666s-4.762-10.666-10.666-10.666-10.666 4.762-10.666 10.666 4.762 10.666 10.666 10.666zM96 390.4c5.905 0 10.666-4.761 10.666-10.666s-4.761-10.666-10.666-10.666-10.666 4.762-10.666 10.666 4.761 10.666 10.666 10.666zM53.334 390.4c5.905 0 10.666-4.761 10.666-10.666s-4.761-10.666-10.666-10.666-10.666 4.762-10.666 10.666 4.761 10.666 10.666 10.666zM0 334.933v-307.2c0-5.905 0-17.067 17.067-17.067h477.866c17.067 0 17.067 11.161 17.067 17.067v307.2h-512zM476.808 188.091l-30.055-29.423c3.26-8.38 5.257-17.425 5.257-26.966 0-41.165-33.502-74.666-74.666-74.666s-74.666 33.502-74.666 74.666 33.502 74.666 74.666 74.666c23.757 0 44.663-11.349 58.368-28.689l26.163 25.634c4.199 4.13 10.974 4.027 15.104-0.171 4.096-4.164 4.027-10.906-0.171-15.053z" />
<glyph unicode="&#xe632;" d="M343.978 422.981c-8.038-3.328-16.469-6.639-25.276-9.882-18.688-26.607-46.865-73.642-55.825-126.276-0.887-5.222-5.393-8.892-10.496-8.892-0.581 0-1.178 0.051-1.792 0.154-5.803 0.973-9.694 6.502-8.721 12.305 7.373 43.264 26.624 82.637 44.118 111.48-81.203-26.146-179.2-46.285-232.806-49.101-2.663-0.103-5.222-1.28-7.099-3.226-66.338-68.54-55.808-215.433 0.188-270.967 2.458-2.44 5.956-3.533 9.37-2.901 15.702 2.799 34.44 4.233 55.757 4.233 81.681 0 183.62-20.787 232.653-30.805-75.537 127.659-40.397 292.95-0.068 373.88zM501.077 102.434c-16.145 0-21.589 11.486-30.959 39.663-8.721 26.026-19.849 59.067-54.989 74.82 4.045 82.245-11.298 167.134-46.097 208.179-40.329-70.622-83.081-247.893-0.273-375.193 0.205 0.222 0.461 0.325 0.632 0.529 11.913 16.93 21.47 38.502 28.791 62.737 2.185-7.39 3.993-15.769 5.939-25.156 5.888-28.997 13.209-65.11 50.569-65.11 5.905 0 10.666 4.762 10.666 10.666s-4.762 10.666-10.666 10.666c-18.022 0-22.87 14.626-29.662 48.026-3.515 17.272-7.987 37.786-18.841 53.18 3.175 15.479 5.598 31.557 7.185 47.957 21.18-13.125 29.065-35.738 36.522-58.026 8.499-25.395 18.142-54.272 51.234-54.272 5.922 0 10.666 4.762 10.666 10.666-0.017 5.922-4.83 10.666-10.718 10.666z" />
<glyph unicode="&#xe633;" d="M346.061 236.714c-3.755 0-7.475 0.819-11.025 2.492-8.892 4.25-14.575 13.244-14.575 23.108v84.736l-128.956-104.635c-7.646-6.213-18.193-7.441-27.153-3.226-8.892 4.25-14.575 13.244-14.575 23.108v80.862l-107.025-96.665c-10.445-9.472-26.675-8.67-36.164 1.826-9.472 10.496-8.653 26.675 1.826 36.165l149.76 135.304c7.526 6.793 18.296 8.517 27.579 4.403 9.233-4.113 15.224-13.278 15.224-23.399v-84.753l128.939 104.635c7.663 6.213 18.227 7.458 27.153 3.226 8.892-4.25 14.575-13.243 14.575-23.108v-84.753l128.939 104.635c7.663 6.213 18.227 7.458 27.153 3.226 8.891-4.25 14.575-13.243 14.575-23.108v-131.738c0-14.131-11.486-25.6-25.6-25.6-14.131 0-25.6 11.469-25.6 25.6v77.978l-128.973-104.635c-4.574-3.755-10.308-5.683-16.077-5.683zM516.727 21.606c-14.131 0-25.6 11.469-25.6 25.6v86.494l-128.956-104.635c-7.646-6.178-18.176-7.475-27.153-3.209-8.892 4.233-14.575 13.226-14.575 23.108v84.736l-128.973-104.635c-7.646-6.178-18.193-7.475-27.153-3.209-8.892 4.233-14.575 13.226-14.575 23.108v79.633l-106.718-99.43c-10.343-9.608-26.555-9.096-36.181 1.263-9.626 10.325-9.063 26.555 1.28 36.199l149.743 139.571c7.475 6.946 18.329 8.772 27.665 4.728s15.377-13.278 15.377-23.466v-84.77l128.938 104.635c7.663 6.195 18.227 7.475 27.17 3.209 8.892-4.25 14.575-13.209 14.575-23.108v-84.77l128.938 104.635c7.663 6.212 18.227 7.475 27.17 3.226 8.891-4.25 14.575-13.226 14.575-23.108v-140.305c0.051-14.046-11.418-25.498-25.549-25.498z" horiz-adv-x="546" />
<glyph unicode="&#xe634;" d="M392.824 53.265c50.245 40.226 82.534 101.939 82.534 171.144 0 120.918-98.389 219.323-219.341 219.323-51.729 0-99.277-18.107-136.84-48.196l53.47-60.57c23.245 17.562 52.071 28.109 83.353 28.109 76.459 0 138.667-62.225 138.667-138.667s-62.208-138.683-138.667-138.683c-76.442 0-138.667 62.225-138.667 138.667 0 37.478 15.001 71.475 39.27 96.444l-53.418 60.57c-40.943-39.885-66.492-95.505-66.492-157.013 0-69.239 32.307-130.918 82.552-171.128l-53.521-56.269c-4.062-4.267-3.909-11.025 0.359-15.070 2.065-1.945 4.71-2.935 7.373-2.935 2.799 0 5.615 1.075 7.714 3.294l55.501 58.334c34.406-22.409 75.332-35.567 119.347-35.567s84.975 13.159 119.347 35.567l55.501-58.334c2.099-2.219 4.933-3.294 7.731-3.294 2.628 0 5.308 0.99 7.373 2.935 4.267 4.045 4.438 10.803 0.358 15.070l-53.504 56.269zM256 213.726c-2.952 0-5.871 1.229-8.005 3.601l-26.522 30.020c-4.386-6.554-6.981-14.456-6.981-22.954 0-22.886 18.637-41.506 41.506-41.506 22.886 0 41.506 18.603 41.506 41.506 0 22.887-18.62 41.489-41.506 41.489-6.639 0-12.834-1.707-18.398-4.506l26.402-29.918c3.909-4.421 3.481-11.145-0.938-15.070-2.014-1.758-4.574-2.663-7.065-2.663zM170.803 304.81c-19.865-21.009-32.137-49.288-32.137-80.401 0-64.717 52.633-117.334 117.334-117.334 64.717 0 117.334 52.633 117.334 117.334 0 64.717-52.599 117.334-117.334 117.334-25.89 0-49.784-8.55-69.206-22.801l36.369-41.216c9.608 5.922 20.787 9.506 32.837 9.506 34.645 0 62.822-28.194 62.822-62.822 0-34.645-28.16-62.84-62.822-62.84-34.629 0-62.839 28.16-62.839 62.839 0 14.848 5.427 28.331 14.063 39.117l-36.421 41.285zM47.326 416.325h24.473c0.136 0 0.273 0.154 0.392 0.171l16.845-19.081 15.599 14.114-20.070 22.306v24.507c0 5.905-2.629 10.667-8.534 10.667-5.888 0-8.534-4.762-8.534-10.667v-18.227c0-0.768-4.898-6.707-5.342-6.707h-14.848c-5.888 0-10.666-2.629-10.666-8.534s4.83-8.55 10.684-8.55z" />
<glyph unicode="&#xe635;" d="M497.118 214.255l-21.146 42.428c-5.24 10.479-17.92 14.678-28.399 9.506-10.411-5.222-14.678-17.937-9.523-28.399l5.888-11.708h-38.963c0 144.776-87.142 253.918-202.274 253.918-11.673 0-21.521-9.506-21.521-21.163v-232.755h-49.664l-15.257 30.6c-5.239 10.479-17.92 14.678-28.399 9.506-10.427-5.223-14.695-17.937-9.506-28.399l5.854-11.708h-16.197l-15.258 30.6c-5.239 10.462-17.903 14.678-28.399 9.506-10.445-5.223-14.711-17.937-9.523-28.399l16.503-33.041-16.486-33.45c-5.171-10.479-0.887-23.142 9.591-28.33 3.038-1.45 6.213-2.185 9.369-2.185 7.782 0 15.309 0.103 18.995 7.56l15.377 26.949h16.299l-6.127-8.226c-5.171-10.445-0.888-20.992 9.575-26.18 3.038-1.45 6.213-1.092 9.37-1.092 7.799 0 15.309 0.598 18.995 8.106l15.377 27.478h49.528v-181.965c0-11.725 9.847-25.395 21.504-25.395 103.56 0 184.354 88.866 199.475 207.36h41.967l-6.093-8.226c-5.205-10.479-0.904-21.026 9.591-26.214 3.021-1.467 6.178-1.127 9.37-1.127 7.765 0 15.291 4.864 18.978 12.356l21.145 43.094c2.969 5.82 2.935 13.073-0.017 18.995zM231.987 435.968c67.703-12.903 130.696-98.816 130.696-209.903h-130.696v209.903zM231.987 16.162v159.13h127.727c-12.731-84.633-60.041-147.917-127.727-159.13z" />
<glyph unicode="&#xe636;" d="M288 276.804c0-17.672-14.327-32-32-32s-32 14.328-32 32c0 17.673 14.327 32 32 32s32-14.327 32-32zM17.067 187.204v17.067h494.933v153.6h-494.933v17.067h494.933v72.534c0 5.905-4.762 12.8-10.666 12.8h-480c0 0-4.761 9.608-10.666 9.608s-10.666-5.837-10.666-11.742v-469.334c0-5.905 2.628-10.666 8.534-10.666s8.534 4.762 8.534 10.666v113.067h484.267c5.905 0 10.666-1.639 10.666 4.267v81.067h-494.933zM256 330.137c29.406 0 53.334-23.911 53.334-53.334s-23.928-53.334-53.334-53.334-53.334 23.911-53.334 53.334 23.928 53.334 53.334 53.334z" />
<glyph unicode="&#xe637;" d="M519.817 190.396c-1.605 2.44-4.096 4.13-6.929 4.625-69.871 13.159-82.398 106.462-87.774 146.329l-0.068 0.137c-9.506 123.238-104.26 140.288-205.398 140.288-74.513 0-150.101-47.582-188.091-118.409-25.071-46.797-71.578-169.472 37.939-297.506 2.117-2.491 5.103-3.738 8.124-3.738 2.031 0 4.096 0.546 5.922 1.775 4.505 2.969 6.041 8.875 3.601 13.688-52.566 104.141-11.332 218.368 17.817 264.226 25.037 39.407 72.653 65.894 118.442 65.894 31.659 0 56.559-13.022 71.39-36.062-25.651 3.209-55.296 13.79-65.246 24.303-2.816 2.987-7.083 3.976-10.991 2.765-3.909-1.229-6.758-4.727-7.339-8.84-2.85-20.207-3.72-39.288 13.431-61.406-3.874-3.55-8.038-7.833-12.424-11.707-36.438-32.239-86.341-76.971-86.341-158.191 0-190.601 184.252-192.358 244.787-192.358 0.154 0 0.307 0 0.409 0 5.888 0 10.666 6.502 10.666 12.442 0 4.403-2.68 10.291-6.57 11.844-29.389 20.889-43.81 43.725-43.025 68.199 0.563 16.896 8.567 31.761 17.63 42.769-43.589 17.63-75.964 44.903-88.712 76.237-10.274 25.259-7.782 52.258 7.168 77.96 2.935 5.12 9.506 6.792 14.575 3.84 5.103-2.935 6.793-9.455 3.874-14.558-11.707-20.121-13.637-40.022-5.837-59.238 12.902-31.693 51.337-59.17 102.758-73.523 1.297-0.358 2.474-1.024 3.498-1.775 18.841-4.659 42.087-11.452 58.266-16.674 2.765-0.938 5.769-0.632 8.294 0.7 5.7 3.089 11.606 7.134 17.425 11.742-11.844 18.21-30.344 27.597-51.37 24.935-6.007-0.734-11.213 3.345-11.964 9.199-0.768 5.871 3.362 11.178 9.199 11.93 28.058 3.687 53.555-8.363 70.024-31.488 15.309 16.298 28.552 37.325 34.167 61.235 0.802 2.986 0.256 5.957-1.331 8.414zM380.808 273.459h-21.334c-5.905 0-10.666 6.178-10.666 8.534s4.762 8.534 10.666 8.534h21.334c5.905 0 10.666-6.178 10.666-8.534s-4.762-8.534-10.666-8.534z" horiz-adv-x="521" />
<glyph unicode="&#xe638;" d="M265.984 2.151c-11.486 0-20.923 9.079-21.316 20.548-4.147 113.032-38.605 312.559-113.425 366.899-18.415 13.38-38.144 16.776-60.331 10.428-21.811-6.23-26.692-27.29-27.785-36.045-2.407-19.49 5.223-39.048 18.125-46.507 10.206-5.888 13.687-18.91 7.816-29.115-5.939-10.206-18.961-13.738-29.15-7.8-27.955 16.128-43.708 51.746-39.134 88.644 4.438 35.823 26.282 62.652 58.437 71.851 35.141 10.035 67.806 4.335 97.075-16.913 58.965-42.837 91.699-141.755 109.688-230.502 18.005 88.746 50.705 187.665 109.688 230.502 29.286 21.248 62.020 26.914 97.075 16.913 32.188-9.199 53.999-36.028 58.436-71.851 4.574-36.898-11.162-72.517-39.117-88.644-10.257-5.939-23.245-2.406-29.133 7.8-5.957 10.206-2.457 23.227 7.8 29.115 12.885 7.458 20.48 27.016 18.125 46.506-1.075 8.773-5.957 29.816-27.801 36.045-22.221 6.349-41.933 2.952-60.296-10.428-74.838-54.34-109.295-253.866-113.425-366.899-0.443-11.469-9.865-20.548-21.351-20.548z" horiz-adv-x="529" />
<glyph unicode="&#xe639;" d="M101.546 262.076h33.86v-84.634h-33.861v84.634zM50.773 262.076h33.843v-84.634h-33.843v84.634zM501.418 262.076h-315.238v25.395c0 5.854-2.611 10.582-8.465 10.582s-8.465-4.745-8.465-10.582v-25.395h-16.913v-84.634h16.93v-16.913c0-5.854 2.594-10.582 8.465-10.582s8.465 4.728 8.465 10.582v16.913h251.768c40.841 0 74.053 33.229 74.053 74.053-0.017 5.871-4.745 10.582-10.599 10.582zM33.843 262.076h-16.913v25.395c0 5.854-2.594 10.582-8.465 10.582s-8.465-4.745-8.465-10.582v-126.942c0-5.854 2.594-10.582 8.465-10.582 5.854 0 8.465 4.728 8.465 10.582v16.913h16.93v84.634z" />
<glyph unicode="&#xe63a;" d="M74.206 190.003l53.061 36.881c7.646 5.325 9.541 15.821 4.232 23.483-5.325 7.629-15.838 9.557-23.466 4.232l-25.942-18.040c6.486 90.419 82.142 162.048 174.421 162.048 75.571 0 142.319-48.008 166.161-119.501 2.952-8.823 12.459-13.602 21.334-10.649 8.841 2.935 13.619 12.476 10.666 21.334-28.416 85.248-108.049 142.558-198.161 142.558-109.278 0-199.065-84.258-207.906-191.061l-20.343 18.585c-6.878 6.298-17.527 5.803-23.825-1.075-6.28-6.861-5.803-17.528 1.075-23.825l47.702-43.571c3.209-2.901 7.27-4.403 11.383-4.403 3.311-0.017 6.673 0.973 9.608 3.003zM506.76 211.695l-46.728 44.647c-5.666 5.445-14.37 6.212-20.958 1.861l-53.88-35.653c-7.765-5.137-9.899-15.599-4.762-23.365 5.137-7.783 15.599-9.899 23.365-4.745l27.136 17.937c-6.041-90.863-81.869-163.004-174.472-163.004-75.589 0-142.37 48.009-166.161 119.535-2.936 8.824-12.442 13.568-21.334 10.666-8.84-2.969-13.602-12.493-10.666-21.368 28.416-85.265 108.049-142.558 198.161-142.558 108.903 0 198.469 83.644 207.872 189.952l19.132-18.296c3.26-3.106 7.475-4.642 11.673-4.642 4.438 0 8.875 1.758 12.185 5.223 6.434 6.673 6.178 17.374-0.563 23.808zM186.931 224c0-38.366 31.215-69.581 69.564-69.581 38.383 0 69.581 31.215 69.581 69.581 0 38.349-31.232 69.563-69.581 69.563-38.366 0-69.564-31.215-69.564-69.563zM292.335 224c0-19.781-16.077-35.84-35.857-35.84s-35.84 16.043-35.84 35.84c0 19.763 16.077 35.823 35.84 35.823 19.781 0.017 35.857-16.059 35.857-35.823z" />
<glyph unicode="&#xe63b;" d="M263.202-2.491c4.539-8.26 1.467-18.637-6.81-23.125-2.594-1.433-5.393-2.099-8.158-2.099-6.042 0-11.895 3.209-15.001 8.892l-128 234.667c-2.782 5.086-2.782 11.247 0 16.333l128 234.667c4.523 8.26 14.882 11.315 23.159 6.81 8.277-4.523 11.349-14.882 6.81-23.142l-123.546-226.509 123.546-226.491zM391.783 241.066h-204.8c-9.421 0-17.066-7.629-17.066-17.066s7.646-17.067 17.066-17.067h204.8c9.421 0 17.067 7.611 17.067 17.067s-7.646 17.066-17.067 17.066z" />
<glyph unicode="&#xe63c;" d="M441.805-32h-123.87c-4.164 0-8.175 1.57-11.213 4.386l-247.757 229.171c-3.277 3.089-5.206 7.288-5.307 11.759-0.069 4.488 1.639 8.824 4.795 12.015l247.74 249.788c3.123 3.123 7.322 4.881 11.742 4.881h123.87c6.69 0 12.68-4.010 15.257-10.154 2.56-6.161 1.178-13.261-3.515-17.989l-235.708-237.654 235.196-217.549c4.966-4.625 6.639-11.844 4.164-18.176-2.457-6.315-8.584-10.479-15.394-10.479zM324.421 1.041h75.247l-216.798 200.517c-3.277 3.089-5.206 7.288-5.308 11.759-0.085 4.488 1.638 8.824 4.796 12.015l219.835 221.627h-77.363l-230.878-232.755 230.469-213.162z" />
<glyph unicode="&#xe63d;" d="M315.067 476.86c-6.793 2.474-14.387 0.341-18.927-5.274l-192-234.667c-5.137-6.28-5.137-15.309 0-21.624l192-234.666c3.294-4.027 8.175-6.264 13.192-6.264 1.928 0 3.874 0.341 5.735 1.024 6.793 2.423 11.332 8.858 11.332 16.043v469.334c0 7.253-4.539 13.688-11.332 16.094zM292.267 39.288l-152.883 186.846 152.883 186.846v-373.692zM394.666 480c-9.421 0-17.067-7.629-17.067-17.067v-477.866c0-9.438 7.646-17.067 17.067-17.067s17.067 7.629 17.067 17.067v477.866c0 9.438-7.646 17.067-17.067 17.067z" />
<glyph unicode="&#xe63e;" d="M443.716 368.691l25.6-20.48c3.158-2.509 6.912-3.721 10.649-3.721 5.017 0 9.967 2.185 13.346 6.4 5.888 7.373 4.693 18.108-2.646 23.978l-53.334 42.666c-6.229 4.966-15.104 4.966-21.334 0l-53.334-42.666c-7.373-5.905-8.567-16.64-2.663-23.995 5.905-7.373 16.64-8.567 23.995-2.663l25.6 20.48v-51.951h-136.534v51.968l25.6-20.48c3.158-2.509 6.895-3.721 10.632-3.721 5.034 0 9.967 2.185 13.363 6.4 5.888 7.373 4.659 18.108-2.663 23.995l-53.334 42.667c-6.229 4.966-15.104 4.966-21.334 0l-53.334-42.667c-7.356-5.905-8.55-16.64-2.662-23.995 5.905-7.373 16.623-8.567 23.995-2.662l25.6 20.48v-51.951h-136.534v51.951l25.6-20.48c3.157-2.509 6.912-3.72 10.649-3.72 5.018 0 9.967 2.184 13.346 6.4 5.888 7.39 4.677 18.125-2.662 23.995l-53.334 42.666c-6.23 4.966-15.104 4.966-21.334 0l-53.334-42.666c-7.355-5.905-8.534-16.64-2.645-23.995 5.905-7.373 16.623-8.55 23.978-2.645l25.6 20.48v-51.951h-51.2v-34.134h51.2v-187.733h-51.2v-34.133h51.2v-17.067c0-9.438 7.629-17.067 17.067-17.067s17.067 7.629 17.067 17.067v17.067h136.534v-17.067c0-9.438 7.629-17.067 17.066-17.067s17.067 7.629 17.067 17.067v17.067h136.534v-17.067c0-9.438 7.629-17.067 17.067-17.067 9.455 0 17.067 7.629 17.067 17.067v17.067h51.2v34.134h-51.2v187.733h51.2v34.133h-51.2l-0.017 51.883zM102.383 94.873v187.733h136.534v-187.733h-136.534zM409.583 94.873h-136.534v187.733h136.534v-187.733z" />
<glyph unicode="&#xe63f;" d="M280.132 455.51c-114.791 0-210.125-83.781-228.454-193.263l-22.425 22.835c-6.605 6.725-17.408 6.793-24.133 0.222-6.724-6.622-6.827-17.425-0.222-24.149l43.708-44.51c3.943-124.228 106.154-224.137 231.526-224.137 127.863 0 231.868 103.834 231.868 231.493 0.017 127.659-104.005 231.51-231.868 231.51zM280.132 26.624c-106.12 0-192.717 83.917-197.325 188.723l48.896 33.638c7.766 5.342 9.728 15.975 4.386 23.739s-15.957 9.728-23.739 4.403l-26.727-18.381c16.504 92.314 97.349 162.662 194.509 162.662 109.039-0.034 197.734-88.576 197.734-197.393s-88.695-197.393-197.735-197.393z" />
<glyph unicode="&#xe640;" d="M508.553 232.038l-43.589 56.986c-5.546 7.304-16.009 8.653-23.296 3.106-7.305-5.581-8.704-16.025-3.14-23.313l23.108-30.225h-198.742v191.061l30.208-23.125c7.322-5.581 17.75-4.216 23.313 3.106 5.581 7.287 4.182 17.75-3.14 23.33l-56.986 43.606c-5.939 4.574-14.268 4.574-20.224 0l-56.969-43.606c-7.27-5.598-8.67-16.026-3.089-23.33 3.26-4.284 8.226-6.537 13.244-6.537 3.533 0 7.083 1.127 10.087 3.431l30.225 23.142v-191.079h-179.2l23.126 30.225c5.598 7.287 4.216 17.732-3.106 23.313-7.27 5.563-17.749 4.215-23.33-3.106l-43.605-57.003c-4.574-5.957-4.574-14.251 0-20.224l43.623-57.002c3.26-4.284 8.209-6.536 13.227-6.536 3.533 0 7.099 1.11 10.086 3.43 7.305 5.598 8.687 16.026 3.106 23.33l-23.126 30.191h179.217v-186.897l-30.225 23.142c-7.27 5.546-17.75 4.199-23.33-3.14-5.598-7.288-4.198-17.715 3.123-23.296l56.969-43.623c2.97-2.304 6.553-3.413 10.103-3.413s7.134 1.11 10.103 3.413l56.986 43.623c7.305 5.563 8.704 16.009 3.14 23.296-5.563 7.322-16.026 8.687-23.313 3.14l-30.208-23.142v186.965h198.759l-23.142-30.225c-5.581-7.288-4.181-17.715 3.14-23.296 3.038-2.321 6.587-3.43 10.070-3.43 5.017 0 9.984 2.253 13.226 6.57l43.623 56.969c4.488 5.922 4.488 14.216-0.051 20.173z" />
<glyph unicode="&#xe641;" d="M256 142.933c-2.816 0-5.632 0.7-8.175 2.099l-234.667 128c-8.277 4.522-11.332 14.882-6.809 23.142 4.523 8.278 14.865 11.315 23.16 6.81l226.492-123.546 226.492 123.546c8.294 4.506 18.637 1.468 23.142-6.81 4.522-8.26 1.467-18.637-6.81-23.142l-234.667-128c-2.526-1.399-5.342-2.099-8.158-2.099z" />
<glyph unicode="&#xe642;" d="M505.651 253.508c4.522-8.261 1.467-18.637-6.81-23.143l-234.667-128c-2.526-1.382-5.342-2.082-8.175-2.082s-5.632 0.7-8.175 2.082l-234.667 128c-8.277 4.523-11.332 14.882-6.809 23.142 4.523 8.277 14.916 11.333 23.142 6.81l226.492-123.546 226.492 123.546c8.243 4.523 18.654 1.467 23.176-6.81zM13.159 315.682l234.667-128c2.526-1.382 5.342-2.082 8.175-2.082s5.632 0.7 8.175 2.082l234.666 128c8.277 4.523 11.332 14.882 6.81 23.142-4.522 8.277-14.933 11.333-23.142 6.81l-226.491-123.546-226.492 123.546c-8.226 4.523-18.637 1.467-23.142-6.81-4.557-8.261-1.502-18.619 6.776-23.142z" />
<glyph unicode="&#xe643;" d="M494.302 294.4h-469.334c-7.219 0-13.653-4.539-16.077-11.332-2.424-6.775-0.325-14.37 5.274-18.944l234.667-192c3.141-2.56 6.981-3.874 10.803-3.874s7.663 1.28 10.803 3.874l234.667 192c5.581 4.591 7.697 12.168 5.274 18.944-2.406 6.793-8.841 11.333-16.077 11.333zM259.635 107.384l-186.863 152.883h373.692l-186.829-152.883zM494.933 345.6c9.421 0 17.067 7.629 17.067 17.066s-7.646 17.067-17.067 17.067h-477.866c-9.421 0-17.067-7.629-17.067-17.067s7.646-17.066 17.067-17.066h477.866z" />
<glyph unicode="&#xe644;" d="M413.798 241.186l-149.333-85.333c-2.611-1.502-5.546-2.253-8.465-2.253s-5.854 0.751-8.465 2.253l-149.333 85.334c-8.175 4.677-11.025 15.104-6.349 23.279 4.659 8.175 15.104 11.042 23.279 6.349l140.868-80.521 140.868 80.504c8.175 4.693 18.603 1.826 23.262-6.349s1.843-18.585-6.332-23.262zM512 224c0-141.38-114.62-256-256-256-141.363 0-256 114.62-256 256s114.637 256 256 256c141.38 0 256-114.62 256-256zM477.866 224c0 122.334-99.533 221.866-221.867 221.866s-221.867-99.533-221.867-221.866 99.533-221.866 221.867-221.866 221.867 99.533 221.867 221.867z" />
<glyph unicode="&#xe645;" d="M384.563 432.674l-54.835 42.667c-6.332 4.898-15.173 4.778-21.334-0.29l-51.849-42.666c-7.27-6.007-8.311-16.743-2.321-24.030s16.725-8.329 24.030-2.338l25.395 20.941v-146.415c0-24.696-25.002-47.207-52.48-47.207-26.59 0-49.92 22.050-49.92 47.207v99.721l17.681-16.282c3.277-3.021 7.424-4.505 11.554-4.505 4.608 0 9.199 1.843 12.561 5.495 6.4 6.929 5.957 17.733-0.99 24.115l-46.302 42.667c-6.536 6.041-16.606 6.041-23.125 0l-46.302-42.667c-6.895-6.383-7.356-17.186-0.973-24.115 6.383-6.912 17.169-7.356 24.115-0.99l17.681 16.281v-99.738c0-38.861 29.952-72.346 68.267-79.736v-214.647c0-9.438 7.646-17.067 17.066-17.067s17.066 7.629 17.066 17.067v215.193c37.99 8.397 68.267 41.728 68.267 79.207v145.272l25.788-20.070c3.123-2.441 6.81-3.584 10.479-3.584 5.069 0 10.103 2.253 13.466 6.57 5.786 7.424 4.454 18.159-2.986 23.945z" />
<glyph unicode="&#xe646;" d="M418.935 215.842l-128-234.667c-3.106-5.666-8.96-8.892-15.002-8.892-2.765 0-5.563 0.666-8.175 2.082-8.26 4.539-11.332 14.882-6.793 23.125l123.529 226.509-123.529 226.492c-4.522 8.26-1.467 18.637 6.793 23.142 8.312 4.506 18.637 1.451 23.159-6.809l128-234.667c2.799-5.052 2.799-11.23 0.017-16.315zM329.916 224.017c0 9.438-7.646 17.066-17.067 17.066h-204.8c-9.421 0-17.067-7.629-17.067-17.066 0-9.455 7.646-17.067 17.067-17.067h204.8c9.421 0 17.067 7.611 17.067 17.066z" />
<glyph unicode="&#xe647;" d="M194.082-32h-123.87c-6.793 0-12.886 4.147-15.394 10.479-2.474 6.332-0.819 13.534 4.181 18.159l235.162 217.566-235.69 237.654c-4.71 4.728-6.093 11.81-3.516 17.971 2.543 6.144 8.602 10.171 15.24 10.171h123.87c4.403 0 8.619-1.758 11.725-4.881l247.739-249.805c3.14-3.175 4.898-7.493 4.796-11.998-0.103-4.488-2.031-8.704-5.308-11.759l-247.722-229.154c-3.055-2.85-7.048-4.403-11.213-4.403zM112.401 1.024h75.23l230.434 213.145-230.861 232.773h-77.346l219.835-221.645c3.158-3.175 4.898-7.493 4.796-12.015-0.103-4.488-2.031-8.704-5.308-11.759l-216.781-200.499z" />
<glyph unicode="&#xe648;" d="M494.95 158.942h-392.534v38.4c0 25.002 33.605 46.934 71.902 46.934h216.183l-15.207-15.975c-6.502-6.81-6.229-17.613 0.598-24.149 3.277-3.14 7.51-4.676 11.742-4.676 4.522 0 9.011 1.775 12.356 5.291l42.666 44.8c6.298 6.587 6.298 16.947 0 23.535l-42.666 44.8c-6.469 6.844-17.305 7.065-24.132 0.598-6.81-6.519-7.099-17.306-0.598-24.133l15.224-15.974h-216.184c-58.471 0-106.035-36.352-106.035-81.067v-38.4h-51.2c-9.421 0-17.067-7.629-17.067-17.067s7.646-17.067 17.067-17.067h477.866c9.421 0 17.067 7.629 17.067 17.067s-7.629 17.084-17.050 17.084z" />
<glyph unicode="&#xe649;" d="M494.933 437.334h-375.466c-9.438 0-17.067-7.629-17.067-17.067v-102.4h-85.334c-9.438 0-17.067-7.629-17.067-17.066s7.629-17.066 17.067-17.066h85.334v-119.466h-85.334c-9.438 0-17.067-7.629-17.067-17.067s7.629-17.067 17.067-17.067h85.334v-102.4c0-9.438 7.629-17.067 17.067-17.067h375.466c9.438 0 17.067 7.629 17.067 17.067v392.534c0 9.438-7.629 17.067-17.067 17.067zM477.866 44.8h-341.334v85.334h169.267l-18.449-23.637c-5.803-7.441-4.488-18.142 2.952-23.928 3.14-2.457 6.793-3.635 10.462-3.635 5.103 0 10.103 2.27 13.466 6.57l38.332 49.067c2.321 2.065 3.909 4.676 4.83 7.731 0.205 0.563 0.222 1.144 0.358 1.758 0.222 1.075 0.632 2.031 0.632 3.192 0 0.137-0.068 0.239-0.068 0.358 0.068 3.909-1.075 7.8-3.687 11.025l-40.534 50.5c-5.939 7.356-16.674 8.534-23.995 2.628-7.356-5.905-8.534-16.674-2.611-23.995l18.825-23.433h-169.779v119.466h169.608l-17.579-24.047c-5.563-7.612-3.909-18.279 3.687-23.842 3.072-2.236 6.57-3.294 10.070-3.294 5.274 0 10.428 2.423 13.807 6.981l34.731 47.446c4.488 3.089 7.577 7.987 7.577 13.841 0 0.375-0.222 0.7-0.222 1.075 0.273 4.215-0.87 8.482-3.704 11.912l-40.534 49.067c-6.007 7.254-16.726 8.294-24.030 2.287-7.271-6.008-8.277-16.743-2.27-24.013l19.2-23.262h-170.326v85.334h341.333l-0.017-358.486z" />
<glyph unicode="&#xe64a;" d="M485.649 437.334h-341.334c-9.421 0-17.067-7.629-17.067-17.067v-149.231l-113.135-116.207c-6.571-6.759-6.434-17.545 0.325-24.132 3.328-3.226 7.611-4.83 11.913-4.83 4.438 0 8.892 1.741 12.22 5.171l88.678 91.102v-123.529l-49.135-50.432c-6.57-6.759-6.434-17.544 0.325-24.149 3.311-3.192 7.612-4.83 11.912-4.83 4.438 0 8.892 1.741 12.219 5.188l24.678 25.31v-21.965c0-9.438 7.646-17.067 17.066-17.067h341.334c9.421 0 17.067 7.629 17.067 17.067v392.534c0 9.438-7.646 17.067-17.067 17.067zM468.582 44.8h-307.2v39.953l136.534 140.168v-9.455c0-9.455 7.646-17.067 17.067-17.067s17.067 7.611 17.067 17.067v51.2c0 9.438-7.646 17.067-17.067 17.067h-51.2c-9.421 0-17.066-7.629-17.066-17.067s7.646-17.066 17.066-17.066h10.547l-112.947-115.951v123.529l68.267 70.127v-9.455c0-9.438 7.646-17.066 17.066-17.066s17.066 7.629 17.066 17.066v51.2c0 9.438-7.646 17.067-17.066 17.067h-51.2c-9.421 0-17.066-7.629-17.066-17.067s7.646-17.067 17.066-17.067h10.547l-44.68-45.892v97.109h307.2v-358.4z" />
<glyph unicode="&#xe64b;" d="M210.961 108.561l-23.227-18.774v373.146c0 9.438-7.646 17.067-17.066 17.067s-17.066-7.629-17.066-17.067v-373.64l-22.954 19.405c-7.185 6.058-17.971 5.154-24.047-2.031-6.076-7.219-5.171-18.005 2.031-24.081l50.142-42.308c3.174-2.663 7.1-4.010 11.008-4.010 0.171 0 0.325 0.086 0.478 0.086 0.119 0 0.273-0.086 0.41-0.086 1.638 0 3.123 0.495 4.625 0.938 0.034 0.034 0.085 0 0.119 0.034 3.294 1.007 6.093 2.799 8.243 5.359l48.776 39.441c7.339 5.957 8.482 16.709 2.543 23.995-5.939 7.339-16.674 8.499-24.013 2.526zM364.442 108.868l-23.108-18.875v372.941c0 9.438-7.646 17.067-17.067 17.067s-17.067-7.629-17.067-17.067v-373.572l-22.887 19.337c-7.185 6.041-17.988 5.137-24.047-2.031-6.076-7.236-5.171-18.005 2.031-24.098l50.142-42.308c3.175-2.663 7.099-3.993 11.008-3.993 0.154 0 0.325 0.068 0.443 0.068 0.103 0 0.239-0.068 0.375-0.068 1.57 0 2.986 0.461 4.438 0.904 0.137 0.034 0.307 0.034 0.426 0.103 3.209 0.99 5.957 2.731 8.055 5.291l48.845 39.902c7.305 5.99 8.363 16.709 2.44 24.030-5.99 7.271-16.776 8.312-24.030 2.373zM68.266 258.134h-51.2c-9.421 0-17.067-7.629-17.067-17.067s7.646-17.066 17.067-17.066h34.133v-238.934c0-9.438 7.646-17.067 17.067-17.067s17.067 7.629 17.067 17.067v256c0 9.438-7.646 17.067-17.067 17.067zM494.933 258.134h-68.267c-9.421 0-17.067-7.629-17.067-17.067v-256c0-9.438 7.646-17.067 17.067-17.067s17.067 7.629 17.067 17.067v238.934h51.2c9.421 0 17.067 7.629 17.067 17.066s-7.646 17.067-17.067 17.067z" />
<glyph unicode="&#xe64c;" d="M385.826 427.332l-75.332-102.793c-2.134-2.918-3.294-6.451-3.294-10.069v-75.827l-22.87 19.064c-7.236 6.042-18.005 5.069-24.047-2.167-6.042-7.254-5.052-18.006 2.168-24.030l48.657-40.534c3.14-3.925 7.731-6.656 13.159-6.656 0.154 0 0.307 0.086 0.426 0.086 0.171 0 0.358-0.086 0.495-0.086 3.959 0 7.97 1.365 11.161 4.164l49.937 43.213c7.099 6.161 7.902 16.947 1.741 24.064-6.178 7.134-16.947 7.919-24.081 1.741l-22.63-19.575v70.946l72.055 98.304c5.581 7.594 3.909 18.279-3.687 23.842-7.611 5.598-18.279 3.942-23.859-3.686zM51.2 303.786h-34.133c-9.421 0-17.067-7.629-17.067-17.066s7.646-17.067 17.067-17.067h17.067v-238.933c0-9.455 7.646-17.067 17.067-17.067s17.067 7.611 17.067 17.067v256c0 9.455-7.646 17.067-17.067 17.067zM494.933 303.786h-34.134c-9.421 0-17.067-7.629-17.067-17.066v-256c0-9.455 7.646-17.067 17.067-17.067s17.067 7.611 17.067 17.067v238.933h17.067c9.421 0 17.067 7.629 17.067 17.067s-7.646 17.067-17.067 17.067zM211.131 257.655l-23.398-19.746v70.963l72.038 98.304c5.598 7.594 3.925 18.279-3.67 23.842-7.629 5.581-18.296 3.925-23.859-3.686l-75.333-102.793c-2.133-2.918-3.294-6.451-3.294-10.070v-77.654l-23.825 18.808c-7.39 5.82-18.125 4.574-23.978-2.833-5.837-7.407-4.574-18.142 2.833-23.962l49.886-39.373c0.171-0.222 0.41-0.325 0.597-0.461l1.246-1.007c0.341-0.29 0.751-0.358 1.109-0.598 1.126-0.734 2.219-1.467 3.516-1.894 1.451-0.529 2.952-0.768 4.471-0.904 0.41-0.034 0.785-0.29 1.212-0.29 0.034 0 0.069 0.034 0.119 0.034s0.102-0.034 0.154-0.034c2.167 0 4.301 0.512 6.349 1.331 0.051 0.034 0.085 0.068 0.119 0.068 1.587 0.666 3.157 1.467 4.54 2.611l51.2 43.213c7.202 6.076 8.124 16.845 2.031 24.047-6.093 7.219-16.879 8.141-24.064 2.082z" />
<glyph unicode="&#xe64d;" d="M17.067 275.2h221.235c8.089 0 31.658-0.017 34.492-35.464l-17.408 16.008c-6.946 6.383-17.733 5.957-24.115-0.99-6.383-6.929-5.957-17.732 0.99-24.115l46.285-42.667c3.26-3.021 7.441-4.505 11.589-4.505s8.277 1.467 11.589 4.505l46.302 42.666c6.912 6.383 7.373 17.186 0.99 24.115-6.383 6.946-17.169 7.373-24.115 0.99l-18.142-16.709c-2.406 43.418-27.99 70.298-68.438 70.298h-221.252c-9.438 0-17.067-7.629-17.067-17.067s7.629-17.066 17.067-17.066zM494.933 172.8h-477.866c-9.438 0-17.067-7.629-17.067-17.067s7.629-17.067 17.067-17.067h477.866c9.438 0 17.067 7.629 17.067 17.067s-7.629 17.067-17.067 17.067z" />
<glyph unicode="&#xe64e;" d="M505.139 234.172l-41.796 56.167c-5.598 7.526-16.298 9.113-23.859 3.516-7.526-5.632-9.13-16.316-3.498-23.877l21.487-28.911h-152.098c-4.762 42.462-28.638 68.267-64.802 68.267h-219.972c-9.438 0-17.067-7.629-17.067-17.066s7.629-17.067 17.067-17.067h219.938c26.198 0 31.658-27.375 31.658-50.329 0-0.307 0.171-0.563 0.205-0.87 0-0.307-0.205-0.563-0.205-0.87 0-22.971-5.462-50.329-31.659-50.329h-219.938c-9.438 0-17.067-7.629-17.067-17.067s7.629-17.067 17.067-17.067h219.938c36.199 0 60.041 25.805 64.802 68.267h152.132l-21.572-28.894c-5.598-7.543-3.993-18.227 3.533-23.859 3.038-2.27 6.673-3.345 10.206-3.345 5.205 0 10.325 2.389 13.704 6.861l41.796 56.166c4.454 5.974 4.454 14.25 0 20.31z" />
<glyph unicode="&#xe64f;" d="M422.724 377.6c0 5.188-2.457 9.659-6.041 12.8l-40.96 51.2c-5.905 7.355-16.64 8.55-23.995 2.662-7.356-5.905-8.534-16.64-2.646-23.995l20.48-25.6h-100.421v68.266c0 9.438-7.629 17.067-17.066 17.067s-17.066-7.629-17.066-17.067v-68.266h-68.267c-9.438 0-17.066-7.629-17.066-17.067s7.629-17.067 17.066-17.067h68.267v-102.4h-88.849l15.224 15.974c6.502 6.827 6.23 17.613-0.597 24.132-6.809 6.469-17.613 6.23-24.132-0.597l-42.666-44.8c-6.263-6.588-6.263-16.947 0-23.535l42.666-44.8c3.362-3.533 7.868-5.308 12.374-5.308 4.232 0 8.465 1.57 11.759 4.693 6.827 6.519 7.1 17.339 0.597 24.132l-15.224 15.975h88.815v-238.934c0-9.438 7.629-17.067 17.066-17.067s17.067 7.629 17.067 17.067v238.934h68.267c9.455 0 17.067 7.629 17.067 17.066s-7.611 17.067-17.067 17.067h-68.267v102.4h100.386l-20.48-25.6c-5.888-7.373-4.676-18.107 2.646-23.995 3.175-2.509 6.912-3.72 10.666-3.72 5 0 9.967 2.185 13.329 6.4l40.96 51.2c3.652 3.123 6.11 7.577 6.11 12.783z" />
<glyph unicode="&#xe650;" d="M320-27.733c-6.041 0-11.878 3.209-15.002 8.892l-128 234.667c-2.782 5.086-2.782 11.247 0 16.333l128 234.667c4.539 8.26 14.899 11.332 23.159 6.81s11.332-14.882 6.793-23.142l-123.512-226.492 123.529-226.509c4.539-8.26 1.467-18.637-6.793-23.125-2.611-1.433-5.41-2.099-8.175-2.099z" />
<glyph unicode="&#xe651;" d="M292.301-2.491c4.539-8.243 1.467-18.637-6.793-23.125-2.56-1.416-5.359-2.082-8.175-2.082-6.041 0-11.878 3.209-14.985 8.892l-128 234.666c-2.782 5.086-2.782 11.247 0 16.333l128 234.667c4.522 8.277 14.933 11.332 23.142 6.81 8.277-4.523 11.332-14.882 6.81-23.142l-123.546-226.509 123.546-226.509zM254.106 224l123.529 226.491c4.539 8.261 1.467 18.637-6.793 23.143-8.226 4.522-18.637 1.467-23.125-6.81l-128-234.667c-2.782-5.086-2.782-11.247 0-16.333l128-234.666c3.106-5.7 8.926-8.892 15.002-8.892 2.765 0 5.563 0.666 8.158 2.082 8.277 4.522 11.332 14.882 6.81 23.142l-123.579 226.509z" />
<glyph unicode="&#xe652;" d="M296.465 388.147c-8.175 4.677-18.603 1.826-23.262-6.349l-85.334-149.333c-3.004-5.256-3.004-11.691 0-16.93l85.334-149.334c3.158-5.512 8.892-8.601 14.831-8.601 2.867 0 5.769 0.717 8.431 2.253 8.175 4.676 11.025 15.104 6.366 23.279l-80.487 140.869 80.487 140.869c4.676 8.175 1.843 18.602-6.366 23.279zM256 480c-141.398 0-256-114.62-256-256 0-141.363 114.603-256 256-256 141.38 0 256 114.637 256 256 0 141.38-114.603 256-256 256zM256 2.134c-122.334 0-221.867 99.533-221.867 221.867s99.533 221.867 221.867 221.867 221.866-99.533 221.866-221.867-99.515-221.867-221.867-221.867z" />
<glyph unicode="&#xe653;" d="M494.933 421.137h-34.134c-9.421 0-17.067-7.629-17.067-17.067s7.646-17.066 17.067-17.066h17.067v-324.267h-289.604l18.944 23.62c5.905 7.356 4.727 18.125-2.629 23.978-7.339 5.888-18.090 4.728-23.995-2.611l-41.199-51.337c-5-6.264-5-15.121 0-21.368l41.199-51.37c3.379-4.199 8.328-6.383 13.329-6.383 3.755 0 7.51 1.229 10.666 3.772 7.356 5.905 8.534 16.657 2.645 23.978l-18.927 23.603h306.637c9.421 0 17.067 7.611 17.067 17.067v358.4c0 9.421-7.646 17.049-17.067 17.049zM102.4 62.737h-68.266v324.267h333.738l-18.432-21.401c-6.127-7.151-5.342-17.92 1.792-24.064 3.226-2.782 7.185-4.13 11.127-4.13 4.779 0 9.575 2.014 12.937 5.939l42.223 49.050c5.41 6.297 5.512 15.599 0.222 22.016l-41.489 50.142c-6.024 7.271-16.743 8.261-24.030 2.253-7.253-6.024-8.277-16.76-2.27-24.030l17.903-21.64h-350.788c-9.421 0-17.067-7.629-17.067-17.067v-358.4c0-9.455 7.646-17.067 17.067-17.067h85.334c9.421 0 17.067 7.611 17.067 17.067 0 9.438-7.646 17.067-17.067 17.067z" />
<glyph unicode="&#xe654;" d="M512 222.839c0 0.137-0.068 0.256-0.068 0.375 0.086 4.045-1.195 8.124-3.993 11.4l-43.298 50.842c-6.075 7.168-16.845 8.055-24.064 1.928-7.168-6.11-8.038-16.879-1.911-24.064l19.951-23.433h-144.333c-5.546 39.646-36.199 68.266-75.964 68.266h-13.125l-37.547 46.933c-5.888 7.373-16.64 8.551-23.978 2.663-7.39-5.922-8.567-16.657-2.679-23.995l20.48-25.6h-164.403c-9.421 0-17.067-7.629-17.067-17.066s7.646-17.066 17.067-17.066h164.403l-20.48-25.6c-5.888-7.373-4.694-18.108 2.662-23.995 3.141-2.509 6.912-3.721 10.649-3.721 5 0 9.967 2.185 13.329 6.4l37.547 46.934h13.125c24.901 0 42.974-19.729 42.974-46.934 0-1.519 0.495-2.867 0.853-4.266-0.358-1.399-0.853-2.748-0.853-4.267 0-27.204-18.074-46.933-42.974-46.933h-97.587l-31.983 43.998c-5.529 7.629-16.231 9.302-23.842 3.772-7.629-5.529-9.319-16.214-3.772-23.825l17.391-23.894h-81.442c-9.421 0-17.067-7.629-17.067-17.067s7.646-17.067 17.067-17.067h80.35l-17.613-23.825c-5.598-7.56-3.993-18.245 3.567-23.842 3.055-2.27 6.605-3.345 10.138-3.345 5.24 0 10.394 2.423 13.739 6.912l32.631 44.118h98.44c39.782 0 70.4 28.621 75.981 68.267h143.769l-19.558-23.603c-6.024-7.253-5-18.039 2.253-24.030 3.209-2.628 7.048-3.925 10.872-3.925 4.933 0 9.796 2.099 13.159 6.178l41.079 49.579c2.423 2.065 4.147 4.693 5.12 7.817 0.137 0.358 0.12 0.734 0.239 1.092 0.307 1.263 0.768 2.491 0.768 3.891z" />
<glyph unicode="&#xe655;" d="M440.661 271.616c3.209-2.679 7.099-3.993 10.974-3.993 4.864 0 9.694 2.065 13.073 6.075l41.13 48.947c2.423 2.048 4.164 4.694 5.137 7.8 0.103 0.307 0.103 0.614 0.205 0.921 0.358 1.383 0.819 2.697 0.819 4.165 0 0.137-0.068 0.256-0.068 0.375 0.085 4.079-1.229 8.192-4.062 11.486l-43.298 50.142c-6.144 7.134-16.93 7.919-24.098 1.775-7.134-6.161-7.902-16.93-1.758-24.064l19.558-22.63h-11.981c-84.822 0-138.462-49.835-188.16-102.23-50.927 52.377-105.728 102.23-190.498 102.23h-14.387l19.013 22.596c6.058 7.219 5.137 18.005-2.082 24.064s-17.989 5.12-24.047-2.099l-42.154-50.142c-2.713-3.209-3.977-7.185-3.925-11.179 0-0.119-0.051-0.205-0.051-0.325 0-0.973 0.376-1.792 0.546-2.731 0.17-0.853 0.205-1.707 0.512-2.509 0.921-2.833 2.441-5.308 4.574-7.253l39.185-48.845c3.379-4.199 8.328-6.383 13.329-6.383 3.755 0 7.509 1.229 10.667 3.755 7.356 5.888 8.534 16.64 2.645 23.995l-18.398 22.921h14.575c71.629 0 119.159-43.606 167.082-92.979-47.274-50.091-93.969-94.754-166.417-94.754h-15.309l19.388 23.569c5.99 7.271 4.95 18.039-2.338 24.030-7.27 6.007-18.023 4.933-24.013-2.355l-42.138-51.2c-1.075-1.297-1.792-2.782-2.424-4.267-0.034-0.103-0.103-0.171-0.137-0.29-0.837-2.065-1.331-4.233-1.331-6.434 0-0.068 0-0.103 0-0.137 0-0.529 0.256-1.007 0.307-1.502 0.154-1.433 0.342-2.867 0.854-4.233 0.495-1.399 1.28-2.56 2.099-3.772 0.239-0.341 0.325-0.717 0.58-1.041l0.683-0.837c0.256-0.29 0.426-0.632 0.699-0.87l40.755-50.039c3.379-4.13 8.294-6.281 13.243-6.281 3.789 0 7.594 1.246 10.769 3.857 7.305 5.939 8.414 16.691 2.457 23.995l-19.234 23.637h15.104c85.93 0 139.879 51.132 190.139 104.294 51.524-53.129 106.649-104.294 192.512-104.294h7.543l-18.568-24.73c-5.666-7.51-4.147-18.21 3.379-23.877 3.072-2.304 6.673-3.413 10.24-3.413 5.205 0 10.308 2.373 13.671 6.793l35.67 47.445c5.325 2.901 9.096 8.329 9.096 14.848 0 0.478-0.256 0.955-0.307 1.416 0.393 4.403-0.7 8.892-3.687 12.493l-41.046 49.067c-6.075 7.236-16.845 8.175-24.064 2.134-7.236-6.041-8.175-16.81-2.134-24.030l20.122-24.030h-9.916c-72.635 0-120.507 44.834-169.113 95.044 46.609 49.237 93.013 92.689 164.438 92.689h11.401l-19.132-22.784c-6.058-7.219-5.137-17.971 2.099-24.030z" />
<glyph unicode="&#xe656;" d="M407.859 236.936l-192 234.667c-4.591 5.598-12.168 7.731-18.944 5.274-6.792-2.423-11.333-8.858-11.333-16.060v-469.334c0-7.219 4.54-13.654 11.333-16.043 1.877-0.7 3.823-1.024 5.734-1.024 5.018 0 9.899 2.219 13.209 6.264l192 234.666c5.154 6.264 5.154 15.309 0 21.589zM219.733 39.288v373.692l152.883-186.846-152.883-186.846zM117.334 480c-9.421 0-17.067-7.629-17.067-17.067v-477.866c0-9.438 7.646-17.067 17.067-17.067s17.067 7.629 17.067 17.067v477.866c0 9.438-7.646 17.067-17.067 17.067z" />
<glyph unicode="&#xe657;" d="M494.933 241.066h-442.471l20.377 25.634c5.871 7.373 4.642 18.108-2.713 23.978-7.441 5.888-18.142 4.625-23.978-2.714l-42.428-53.334c-4.949-6.23-4.949-15.036 0-21.265l42.428-53.334c3.362-4.25 8.328-6.434 13.363-6.434 3.721 0 7.475 1.195 10.615 3.704 7.373 5.871 8.585 16.606 2.713 23.962l-20.377 25.634h442.471c9.438 0 17.067 7.629 17.067 17.067s-7.663 17.101-17.067 17.101z" />
<glyph unicode="&#xe658;" d="M504.729 234.513l-41.796 53.333c-5.803 7.39-16.538 8.721-23.945 2.901-7.424-5.82-8.721-16.537-2.901-23.962l20.173-25.72h-435.558c-9.438 0-17.067-7.629-17.067-17.066s7.629-17.067 17.067-17.067h435.558l-20.19-25.736c-5.82-7.458-4.522-18.142 2.901-23.962 3.158-2.474 6.81-3.618 10.513-3.618 5.069 0 10.087 2.236 13.449 6.519l41.779 53.334c4.881 6.161 4.881 14.865 0.017 21.043z" />
<glyph unicode="&#xe659;" d="M494.933 437.334h-375.466c-9.438 0-17.067-7.629-17.067-17.067v-102.4h-47.958l21.743 25.088c6.161 7.134 5.393 17.903-1.724 24.081-7.117 6.161-17.886 5.393-24.081-1.724l-46.233-53.334c-0.768-0.887-1.178-1.929-1.741-2.918-0.376-0.666-0.871-1.229-1.161-1.945-0.785-1.98-1.212-4.062-1.229-6.178 0-0.051-0.034-0.086-0.034-0.137 0-0.392 0.205-0.717 0.222-1.092 0.119-1.707 0.393-3.345 1.007-4.95 0.342-0.853 0.854-1.553 1.297-2.338 0.444-0.802 0.717-1.655 1.314-2.389l43.383-53.333c3.362-4.147 8.277-6.298 13.243-6.298 3.789 0 7.577 1.246 10.752 3.823 7.322 5.939 8.414 16.691 2.475 23.995l-20.719 25.514h49.442v-119.466h-47.070l18.791 21.368c6.213 7.099 5.513 17.869-1.57 24.098-7.1 6.178-17.869 5.495-24.098-1.57l-42.206-48.043c-2.424-2.014-4.199-4.625-5.205-7.697-0.119-0.325-0.103-0.632-0.188-0.955-0.358-1.399-0.871-2.765-0.871-4.267 0-0.171 0.086-0.307 0.086-0.426-0.069-4.301 1.399-8.584 4.557-11.93l46.233-49.067c3.345-3.567 7.885-5.342 12.425-5.342 4.199 0 8.397 1.536 11.708 4.625 6.861 6.469 7.185 17.272 0.717 24.115l-19.712 20.958h46.422v-102.4c0-9.438 7.629-17.067 17.067-17.067h375.466c9.455 0 17.066 7.629 17.066 17.067v392.534c-0.017 9.438-7.646 17.067-17.084 17.067zM477.866 44.8h-341.334v85.334h204.8c9.438 0 17.067 7.629 17.067 17.067s-7.629 17.067-17.067 17.067h-204.8v119.466h204.8c9.438 0 17.067 7.629 17.067 17.067s-7.629 17.066-17.067 17.066h-204.8v85.334h341.334v-358.4z" />
</font>
</defs>
</svg>
